Вход в свой аккаунт

Или войдите через соц. сети

D3.js Data Visualization Fundamentals [repost]


D3.js Data Visualization Fundamentals
WEBRip | English | MP4 | 1024 x 768 | AVC ~1069 kbps | 15 fps
AAC | 111 Kbps | 44.1 KHz | 2 channels | 4h 35mn | 1.04 GB
Genre: Video Tutorial

Learn how to bend data to your will with this powerful data visualization library.
This course teaches you how to use D3.js (data-driven documents) to make stunning data visualizations. You will learn all of the core concepts of D3.js, as well as go through functional examples of building data visualizations and business dashboards. Watch this course to get up to speed quickly using D3.js and start seeing what your data has been trying to tell you. This is a beginner course, but it is assumed you are familiar with the basics of HTML, CSS, and JavaScript.

Content:

01. The Basics
01. Introduction.mp4
02. D3 Origins.mp4
03. SVG Objects.mp4
04. DEMO. Drawing Shapes.mp4
05. D3 Principles.mp4
06. DEMO. Drawing with Data.mp4
07. Summary.mp4
02. Basic Charting
01. Introduction.mp4
02. DEMO. Building a Bar Chart.mp4
03. DEMO. Coloring Your Bar Chart.mp4
04. DEMO. Adding Labels.mp4
05. DEMO. Building a Line Chart.mp4
06. DEMO. Building a Scatter Plot.mp4
07. Summary.mp4
03. Working with Data Part 1 - External Data Sources
01. Introduction.mp4
02. External Data Sources.mp4
03. DEMO. Working with CSV Data.mp4
04. DEMO. Working with JSON Data.mp4
05. Summary.mp4
04. Working with Data Part 2 - Getting Data from Web APIs
01. Introduction.mp4
02. Web API Overview.mp4
03. DEMO. Calling a Web API for Data.mp4
04. DEMO. Decoding Data.mp4
05. Public Data APIs.mp4
06. Summary.mp4
05. Enhancing Your Viz Part 1 - Scales and Axis
01. Introduction.mp4
02. Scaling Overview.mp4
03. DEMO. Scaling Data.mp4
04. Axis Overview.mp4
05. DEMO. Adding Axis to Charts.mp4
06. Summary.mp4
06. Enhancing Your Viz Part 2 - Interactivity
01. Introduction.mp4
02. DEMO. Adding a Filter.mp4
03. DEMO. Animating Transitions.mp4
04. DEMO. Adding Tooltips.mp4
05. Summary.mp4
07. Mapping
01. Introduction.mp4
02. GeoJSON.mp4
03. DEMO. Drawing Maps.mp4
04. DEMO. Adding Color.mp4
05. DEMO. Adding Points.mp4
06. Summary.mp4
08. Pulling It All Together
01. Introduction.mp4
02. Dashboard Design.mp4
03. DEMO. Building a Dashboard.mp4
04. Summary.mp4

also You can watch my other last:

General
Complete name : 02. Web API Overview.mp4
Format : MPEG-4
Format profile : Base Media / Version 2
Codec ID : mp42
File size : 26.1 MiB
Duration : 3mn 5s
Overall bit rate mode : Variable
Overall bit rate : 1 183 Kbps
Encoded date : UTC 2014-04-19 20:52:01
Tagged date : UTC 2014-04-19 20:52:18
Writing application : HandBrake 0.9.8 2012071700

Video
ID : 1
Format : AVC
Format/Info : Advanced Video Codec
Format profile : [email protected]
Format settings, CABAC : No
Format settings, ReFrames : 2 frames
Codec ID : avc1
Codec ID/Info : Advanced Video Coding
Duration : 3mn 5s
Duration_FirstFrame : 67ms
Bit rate : 1 069 Kbps
Width : 1 024 pixels
Height : 768 pixels
Display aspect ratio : 4:3
Frame rate mode : Constant
Frame rate : 15.000 fps
Color space : YUV
Chroma subsampling : 4:2:0
Bit depth : 8 bits
Scan type : Progressive
Bits/(Pixel*Frame) : 0.091
Stream size : 23.6 MiB (90%)
Writing library : x264 core 120
Encoding settings : cabac=0 / ref=2 / deblock=1:0:0 / analyse=0x1:0x111 / me=umh / subme=6 / psy=1 / psy_rd=1.00:0.00 / mixed_ref=1 / me_range=16 / chroma_me=1 / trellis=0 / 8x8dct=0 / cqm=0 / deadzone=21,11 / fast_pskip=1 / chroma_qp_offset=-2 / threads=12 / sliced_threads=0 / nr=0 / decimate=1 / interlaced=0 / bluray_compat=0 / constrained_intra=0 / bframes=0 / weightp=0 / keyint=50 / keyint_min=15 / scenecut=40 / intra_refresh=0 / rc_lookahead=40 / rc=crf / mbtree=1 / crf=20.0 / qcomp=0.60 / qpmin=3 / qpmax=69 / qpstep=4 / ip_ratio=1.40 / aq=1:1.00
Encoded date : UTC 2014-04-19 20:52:01
Tagged date : UTC 2014-04-19 20:52:18
Color range : Limited
Color primaries : BT.709
Transfer characteristics : BT.709
Matrix coefficients : BT.709

Audio
ID : 2
Format : AAC
Format/Info : Advanced Audio Codec
Format profile : LC
Codec ID : 40
Duration : 3mn 5s
Bit rate mode : Variable
Bit rate : 111 Kbps
Maximum bit rate : 132 Kbps
Channel(s) : 2 channels
Channel positions : Front: L R
Sampling rate : 44.1 KHz
Compression mode : Lossy
Stream size : 2.46 MiB (9%)
Title : Stereo
Language : English
Encoded date : UTC 2014-04-19 20:52:01
Tagged date : UTC 2014-04-19 20:52:18
Screenshots






Exclusive eLearning Videos в†ђ add to bookmarks