Вход в свой аккаунт

Или войдите через соц. сети

Sam Cooke - Tribute To The Lady (Billie Holiday) (1959) [ABKCO Remaster 2003] PS3 ISO + Hi-Res FLAC {RE-UP}


Sam Cooke - Tribute To The Lady (Billie Holiday) (1959) [ABKCO Remaster 2003]
PS3 Rip | SACD ISO | DSD64 2.0 > 1-bit/2.8224 MHz | 51:36 minutes | Scans included | 934 MB
or FLAC(converted with foobar2000 to tracks) 24bit/88,2 kHz | Full Scans included | 547 MB

“ An album that's seldom been seen and disappeared almost as quickly as it was released. Sam Cooke turned these songs inside out with twisting, awesome interpretations. It was one of the few times he was able to break out of the light pop/teen idol bag in a studio and pour his heart into great lyrics and numbers. ”


Tracklist:

01. Good Morning, Heartache
02. She's Funny That Way
03. I Gotta Right To Sing The Blues
04. T'Aint Nobody's Bizness (If I Do)
05. Comes Love
06. Lover Girl (Man)
07. Let's Call The Whole Thing Off
08. Lover Come Back To Me
09. Solitude
10. They Can't Take That Away From Me
11. Crazy She Calls Me
12. God Bless The Child
13. Blue Moon
14. I Cover The Waterfront
15. Ac-cent-tchu-ate The Positive
16. The Gypsy
17. All Of My Life
18. Today I Sing The Blues
19. Oh Look At Me Now
20. My Foolish Heart
21. When I Fall In Love

Sound Restoration & Archive Coordinator by Steve Rosenthal (The Magic Room).
Analog to Digital Transfers by Teri Landi & Rick Essig at The Master Cutting Room.
DSD Engineer: Gus Skinas. Mastered by Bob Ludwig at Gateway Mastering.

foobar2000 1.2.9 / Dynamic Range Meter 1.1.1

--------------------------------------------------------------------------------
Analyzed: Sam Cooke / Tribute To The Lady
--------------------------------------------------------------------------------

DR Peak RMS Duration Track
--------------------------------------------------------------------------------
DR13 -5.07 dB -20.69 dB 2:05 01-Good Morning, Heartache
DR12 -4.50 dB -20.71 dB 1:50 02-She's Funny That Way
DR13 -5.06 dB -21.24 dB 2:32 03-I Gotta Right To Sing The Blues
DR13 -2.75 dB -18.53 dB 2:24 04-T'Aint Nobody's Bizness (If I Do)
DR13 -3.51 dB -19.49 dB 2:27 05-Comes Love
DR13 -5.26 dB -21.66 dB 2:26 06-Lover Girl (Man)
DR13 -3.75 dB -19.06 dB 2:20 07-Let's Call The Whole Thing Off
DR11 -6.81 dB -19.81 dB 2:10 08-Lover Come Back To Me
DR14 -4.91 dB -22.51 dB 2:22 09-Solitude
DR13 -4.91 dB -21.21 dB 2:29 10-They Can't Take That Away From Me
DR13 -6.50 dB -23.02 dB 2:33 11-Crazy She Calls Me
DR11 -7.68 dB -22.54 dB 2:34 12-God Bless The Child
DR9 -9.35 dB -21.53 dB 2:48 13-Blue Moon
DR13 -5.32 dB -20.92 dB 2:12 14-I Cover The Waterfront
DR11 -6.26 dB -19.71 dB 3:21 15-Ac-cent-tchu-ate The Positive
DR11 -7.05 dB -22.81 dB 2:30 16-The Gypsy
DR10 -7.14 dB -20.32 dB 2:21 17-All Of My Life
DR13 -6.41 dB -22.51 dB 3:20 18-Today I Sing The Blues
DR11 -5.46 dB -19.86 dB 1:52 19-Oh Look At Me Now
DR11 -5.46 dB -20.57 dB 2:18 20-My Foolish Heart
DR10 -6.74 dB -20.94 dB 2:41 21-When I Fall In Love
--------------------------------------------------------------------------------

Number of tracks: 21
Official DR value: DR12

Samplerate: 2822400 Hz / PCM Samplerate: 88200 Hz
Channels: 2
Bits per sample: 24
Bitrate: 5645 kbps
Codec: DSD64


Thanks to PSВіSACD!
Uncompressed SACD ISO size > 2,11 GB
http://www.nitroflare.com/view/07C691BA0E19D2B/SamCooke5903SAISO.part1.rar
http://www.nitroflare.com/view/CEEF2F0F8552165/SamCooke5903SAISO.part2.rar
http://www.nitroflare.com/view/4FDF96EFC8CAF7F/SamCooke5903FL24.rar