Camille Berthollet - Prodiges (2015)


Camille Berthollet - Prodiges
Classical | FLAC (tracks) 24-bit/96 kHz | 60:06 min | 1.15 GB | Digital booklet
Label: Warner Classics | Tracks: 17 | Rls.date: 2015

The Prodigies album is a broad-ranging collection of virtuoso minatures for duet and dazzling solo works with the Auvergne Orchestra. The programme includes movements from Vivaldi's Four Seasons with which Camille ignited the stage live on France 2 TV, Bach's Double Concerto, Sarasate's Navarra, Brahm's Hungarian Dance No. 1, the searing theme from Schindler's List, and a personal favorite of Camille's Edith Piaf's La Vie en Rose. Gautier Capucon joins Camille in Piazzolla's soulful Oblivion.

TRACKLIST
1. Vivaldi: Le quattro stagioni (The Four Seasons), Violin Concerto in G Minor Op. 8, No. 2, RV 315, 'Summer': III. Presto
2. Brahms: 21 Hungarian Dances: No. 1 in G Minor
3. Monti: Czardas
4. Williams: Theme from "Schindler's List"
5. Piazzolla: Oblivion
6. Piazzola: Le quattro stagioni (The Four Seasons), 'Winter'
7. Vivaldi: Le quattro stagioni (The Four Seasons), Violin Concerto in F Minor Op. 8, No. 4, RV 297, 'Winter': II. Largo
8. Joplin: The Entertainer
9. Frolov: Joke-souvenir
10. Gardel: Por una cabeza
11. Vivaldi: Concerto for 2 Violins in A Minor, Op. 3 No. 8, RV 522: III. Allegro
12. Bach, JS: Concerto for 2 Violins in D Minor, BWV 1043: I. Vivace
13. Halvorsen: Suite No. 7 in G Minor, HWV 432
14. Louiguy: La vie en rose
15. Popper: Elfentanz, Op. 39
16. Sarasate: Navarra, Op. 33
17. Fauré: 3 Mélodies: No. 1 Après un rêve

foobar2000 1.3.7 / Замер динамического диапазона (DR) 1.1.1
Дата отчёта: 2016-11-13 18:43:47

––––––––––––––––––––––––––––––––––––––––
Анализ: Camille Berthollet / Camille - Prodiges
––––––––––––––––––––––––––––––––––––––––

DR Пики RMS Продолжительность трека
––––––––––––––––––––––––––––––––––––––––
DR13 -0.42 дБ -16.27 дБ 2:28 01-Vivaldi: Le quattro stagioni (The Four Seasons), Violin Concerto in G Minor Op. 8, No. 2, RV 315, 'Summer': III. Presto
DR13 -0.36 дБ -16.36 дБ 2:56 02-Brahms: 21 Hungarian Dances: No. 1 in G Minor
DR13 -0.47 дБ -17.59 дБ 4:11 03-Monti: Czardas
DR12 -3.08 дБ -18.30 дБ 4:09 04-Williams: Theme from "Schindler's List"
DR12 -0.41 дБ -17.32 дБ 3:22 05-Piazzolla: Oblivion
DR14 -0.57 дБ -19.26 дБ 6:39 06-Piazzola: Le quattro stagioni (The Four Seasons), 'Winter'
DR11 -5.56 дБ -19.95 дБ 1:56 07-Vivaldi: Le quattro stagioni (The Four Seasons), Violin Concerto in F Minor Op. 8, No. 4, RV 297, 'Winter': II. Largo
DR13 -0.51 дБ -16.88 дБ 1:27 08-Joplin: The Entertainer
DR14 -0.43 дБ -17.96 дБ 1:49 09-Frolov: Joke-souvenir
DR12 -0.41 дБ -18.22 дБ 2:28 10-Gardel: Por una cabeza
DR13 -0.94 дБ -17.80 дБ 3:31 11-Vivaldi: Concerto in A Minor for 2 Violins, Op. 3 No. 8, RV 522: III. Allegro
DR13 -1.98 дБ -16.57 дБ 3:50 12-Bach, JS: Concerto for 2 Violins in D Minor, BWV 1043: I. Vivace
DR14 -0.66 дБ -19.95 дБ 5:36 13-Halvorsen: Suite No. 7 in G Minor, HWV 432
DR13 -1.38 дБ -21.20 дБ 3:22 14-La vie en rose
DR13 -2.31 дБ -19.88 дБ 3:06 15-Popper: Elfentanz, Op. 39
DR14 -0.36 дБ -18.01 дБ 6:15 16-Sarasate: Navarra, Op. 33
DR11 -2.38 дБ -20.51 дБ 3:12 17-Fauré: 3 Mélodies: No. 1 Après un rêve
––––––––––––––––––––––––––––––––––––––––

Количество треков: 17
Реальные значения DR: DR13

Частота: 96000 Гц
Каналов: 2
Разрядность: 24
Битрейт: 2529 кбит/с
Кодек: FLAC
================================================================================


Thanks to the Original customer.
hitfile