Āõīä ā ńāīé ąźźąóķņ

Čėč āīéäčņå ÷åšåē ńīö. ńåņč

King Crimson - Beat: 40th Anniversary (Remixed by Steven Wilson) (1982/2016) [TR24][DVDA]


King Crimson - Beat: 40th Anniversary (Remixed by Steven Wilson)
Progressive Rock | FLAC (tracks) 24/48 WAV (flac.ape.wv) 2.0, 5.1 | 171:10 min | 2.83 GB | Front Cover
Label: Inner Knot (KCSP 9) | Tracks: 36 | Rls.date: 1982/2016

Deluxe two disc (CD + NTSC/Region 0 DVD-A) edition. Beat is the 11th release in the acclaimed King Crimson 40th anniversary series. The classic album has been mixed for 5.1 Surround Sound from the original studio masters by Steven Wilson and is fully approved by Crimson founder Robert Fripp. The CD features a completely new stereo album mix by Robert Fripp and Steven Wilson plus a studio version of the otherwise unreleased track "Absent Lovers". The DVD-A features a 5.1 DTS Mix and High Resolution Stereo mixes. Also included on the DVD-A: a 5.1 Lossless audio mix and Lossless Stereo mixes; both the original album mix and the new album mix in High Resolution stereo; the complete album in rough mix form dating from the time of the original sessions; performances featured on German TV live from The Alabamahalle & the original, rarely seen, promo film for 'Heartbeat'. Beat was released in June 1982 just eight months after the '80s Crimson lineup debut album Discipline. It marked the first occasion where a King Crimson line-up had remained intact for a two album stretch and was also the first album by the band to employ a separate producer - Rhett Davies. The juxtaposition of lyrics heavily influenced by '50s beat luminaries Jack Kerouac and Neal Cassady.

TRACKLIST

2016 Stereo Mix (56:21)

01 - Neal And Jack And Me (4:24)
02 - Heartbeat (3:52)
03 - Sartori In Tangier (3:34)
04 - Waiting Man (4:26)
05 - Neurotica (4:50)
06 - Two Hands (3:23)
07 - The Howler (4:13)
08 - Requiem (Extended Version) (12:12)
09 - Absent Lovers (Instrumental, Studio Recording) (4:13)
10 - Neal And Jack And Me (Alt. Take) (6:14)
11 - Absent Lovers (Live, Oxford) (4:59)

foobar2000 1.2.2 / Dynamic Range Meter 1.1.1
log date: 2016-11-17 17:24:33

ā€“ā€“ā€“ā€“ā€“ā€“ā€“ā€“ā€“ā€“ā€“ā€“ā€“ā€“ā€“ā€“ā€“ā€“ā€“ā€“ā€“ā€“ā€“ā€“ā€“ā€“ā€“ā€“ā€“ā€“ā€“ā€“ā€“ā€“ā€“ā€“ā€“ā€“ā€“ā€“
Analyzed: King Crimson / Beat (40th Anniversary Series) - Disc 2: DVD Audio - Part 1: 2016 Stereo Mix
ā€“ā€“ā€“ā€“ā€“ā€“ā€“ā€“ā€“ā€“ā€“ā€“ā€“ā€“ā€“ā€“ā€“ā€“ā€“ā€“ā€“ā€“ā€“ā€“ā€“ā€“ā€“ā€“ā€“ā€“ā€“ā€“ā€“ā€“ā€“ā€“ā€“ā€“ā€“ā€“

DR Peak RMS Duration Track
ā€“ā€“ā€“ā€“ā€“ā€“ā€“ā€“ā€“ā€“ā€“ā€“ā€“ā€“ā€“ā€“ā€“ā€“ā€“ā€“ā€“ā€“ā€“ā€“ā€“ā€“ā€“ā€“ā€“ā€“ā€“ā€“ā€“ā€“ā€“ā€“ā€“ā€“ā€“ā€“
DR9 -0.60 dB -12.17 dB 4:24 ?-Neal And Jack And Me
DR11 -0.20 dB -13.38 dB 3:52 ?-Heartbeat
DR10 -0.60 dB -12.28 dB 3:34 ?-Sartori In Tangier
DR9 -0.40 dB -11.35 dB 4:26 ?-Waiting Man
DR10 -0.60 dB -12.17 dB 4:50 ?-Neurotica
DR11 -2.60 dB -16.12 dB 3:23 ?-Two Hands
DR9 -0.52 dB -11.66 dB 4:13 ?-The Howler
DR11 -0.60 dB -17.16 dB 12:12 ?-Requiem (Extended Version)
DR9 -0.60 dB -11.19 dB 4:13 ?-Absent Lovers (Instrumental, Studio Recording)
DR9 -0.61 dB -12.75 dB 6:14 ?-Neal And Jack And Me (Alt. Take)
DR6 -0.70 dB -8.19 dB 4:59 ?-Absent Lovers (Live, Oxford)
ā€“ā€“ā€“ā€“ā€“ā€“ā€“ā€“ā€“ā€“ā€“ā€“ā€“ā€“ā€“ā€“ā€“ā€“ā€“ā€“ā€“ā€“ā€“ā€“ā€“ā€“ā€“ā€“ā€“ā€“ā€“ā€“ā€“ā€“ā€“ā€“ā€“ā€“ā€“ā€“

Number of tracks: 11
Official DR value: DR10

Samplerate: 48000 Hz
Channels: 2
Bits per sample: 24
Bitrate: 1682 kbps
Codec: FLAC
================================================================================


30th Anniversary Remaster (35:22)

01 - Neal And Jack And Me (4:23)
02 - Heartbeat (3:54)
03 - Sartori In Tangier (3:34)
04 - Waiting Man (4:27)
05 - Neurotica (4:49)
06 - Two Hands (3:23)
07 - The Howler (4:13)
08 - Requiem (6:38)

foobar2000 1.2.2 / Dynamic Range Meter 1.1.1
log date: 2016-11-17 17:27:01

ā€“ā€“ā€“ā€“ā€“ā€“ā€“ā€“ā€“ā€“ā€“ā€“ā€“ā€“ā€“ā€“ā€“ā€“ā€“ā€“ā€“ā€“ā€“ā€“ā€“ā€“ā€“ā€“ā€“ā€“ā€“ā€“ā€“ā€“ā€“ā€“ā€“ā€“ā€“ā€“
Analyzed: King Crimson / Beat (40th Anniversary Series) - Disc 2: DVD Audio - Part 2: 30th Anniversary Remaster
ā€“ā€“ā€“ā€“ā€“ā€“ā€“ā€“ā€“ā€“ā€“ā€“ā€“ā€“ā€“ā€“ā€“ā€“ā€“ā€“ā€“ā€“ā€“ā€“ā€“ā€“ā€“ā€“ā€“ā€“ā€“ā€“ā€“ā€“ā€“ā€“ā€“ā€“ā€“ā€“

DR Peak RMS Duration Track
ā€“ā€“ā€“ā€“ā€“ā€“ā€“ā€“ā€“ā€“ā€“ā€“ā€“ā€“ā€“ā€“ā€“ā€“ā€“ā€“ā€“ā€“ā€“ā€“ā€“ā€“ā€“ā€“ā€“ā€“ā€“ā€“ā€“ā€“ā€“ā€“ā€“ā€“ā€“ā€“
DR10 -0.12 dB -12.85 dB 4:23 ?-Neal And Jack And Me
DR11 -0.12 dB -13.09 dB 3:54 ?-Heartbeat
DR12 -0.12 dB -13.78 dB 3:34 ?-Sartori In Tangier
DR9 -0.12 dB -11.47 dB 4:27 ?-Waiting Man
DR11 -0.12 dB -13.62 dB 4:49 ?-Neurotica
DR11 -1.65 dB -14.54 dB 3:23 ?-Two Hands
DR11 -0.13 dB -13.97 dB 4:13 ?-The Howler
DR10 -0.12 dB -14.71 dB 6:38 ?-Requiem
ā€“ā€“ā€“ā€“ā€“ā€“ā€“ā€“ā€“ā€“ā€“ā€“ā€“ā€“ā€“ā€“ā€“ā€“ā€“ā€“ā€“ā€“ā€“ā€“ā€“ā€“ā€“ā€“ā€“ā€“ā€“ā€“ā€“ā€“ā€“ā€“ā€“ā€“ā€“ā€“

Number of tracks: 8
Official DR value: DR11

Samplerate: 96000 Hz
Channels: 2
Bits per sample: 24
Bitrate: 2592 kbps
Codec: FLAC
================================================================================


Alternate Album (34:30)

01 - Neal And Jack And Me (4:23)
02 - Heartbeat (3:54)
03 - Sartori In Tangier (3:33)
04 - Waiting Man (4:23)
05 - Neurotica (4:18)
06 - Two Hands (3:24)
07 - The Howler (3:50)
08 - Requiem (6:43)

foobar2000 1.2.2 / Dynamic Range Meter 1.1.1
log date: 2016-11-17 17:30:54

ā€“ā€“ā€“ā€“ā€“ā€“ā€“ā€“ā€“ā€“ā€“ā€“ā€“ā€“ā€“ā€“ā€“ā€“ā€“ā€“ā€“ā€“ā€“ā€“ā€“ā€“ā€“ā€“ā€“ā€“ā€“ā€“ā€“ā€“ā€“ā€“ā€“ā€“ā€“ā€“
Analyzed: King Crimson / Beat (40th Anniversary Series) - Disc 2: DVD Audio - Part 3: Alternate Album
ā€“ā€“ā€“ā€“ā€“ā€“ā€“ā€“ā€“ā€“ā€“ā€“ā€“ā€“ā€“ā€“ā€“ā€“ā€“ā€“ā€“ā€“ā€“ā€“ā€“ā€“ā€“ā€“ā€“ā€“ā€“ā€“ā€“ā€“ā€“ā€“ā€“ā€“ā€“ā€“

DR Peak RMS Duration Track
ā€“ā€“ā€“ā€“ā€“ā€“ā€“ā€“ā€“ā€“ā€“ā€“ā€“ā€“ā€“ā€“ā€“ā€“ā€“ā€“ā€“ā€“ā€“ā€“ā€“ā€“ā€“ā€“ā€“ā€“ā€“ā€“ā€“ā€“ā€“ā€“ā€“ā€“ā€“ā€“
DR10 -0.70 dB -13.32 dB 4:23 ?-Neal And Jack And Me
DR10 -0.40 dB -13.04 dB 3:54 ?-Heartbeat
DR10 -0.68 dB -13.60 dB 3:33 ?-Sartori In Tangier
DR9 -1.07 dB -11.87 dB 4:23 ?-Waiting Man
DR9 -0.80 dB -12.61 dB 4:18 ?-Neurotica
DR11 -1.40 dB -14.34 dB 3:24 ?-Two Hands
DR12 -0.39 dB -14.54 dB 3:50 ?-The Howler
DR8 -0.49 dB -13.03 dB 6:43 ?-Requiem
ā€“ā€“ā€“ā€“ā€“ā€“ā€“ā€“ā€“ā€“ā€“ā€“ā€“ā€“ā€“ā€“ā€“ā€“ā€“ā€“ā€“ā€“ā€“ā€“ā€“ā€“ā€“ā€“ā€“ā€“ā€“ā€“ā€“ā€“ā€“ā€“ā€“ā€“ā€“ā€“

Number of tracks: 8
Official DR value: DR10

Samplerate: 48000 Hz
Channels: 2
Bits per sample: 24
Bitrate: 1592 kbps
Codec: FLAC
================================================================================


5.1 surround sound (45:08)

01 - Neal And Jack And Me (4:24)
02 - Heartbeat (3:52)
03 - Sartori In Tangier (3:34)
04 - Waiting Man (4:26)
05 - Neurotica (4:50)
06 - Two Hands (3:23)
07 - The Howler (4:13)
08 - Requiem (Extended Version) (12:12)
09 - Absent Lovers (Instrumental, Studio Recording) (4:13)

foobar2000 1.2.2 / Dynamic Range Meter 1.1.1
log date: 2016-11-17 16:42:24

ā€“ā€“ā€“ā€“ā€“ā€“ā€“ā€“ā€“ā€“ā€“ā€“ā€“ā€“ā€“ā€“ā€“ā€“ā€“ā€“ā€“ā€“ā€“ā€“ā€“ā€“ā€“ā€“ā€“ā€“ā€“ā€“ā€“ā€“ā€“ā€“ā€“ā€“ā€“ā€“
Analyzed: King Crimson / Beat (40th Anniversary Series)
ā€“ā€“ā€“ā€“ā€“ā€“ā€“ā€“ā€“ā€“ā€“ā€“ā€“ā€“ā€“ā€“ā€“ā€“ā€“ā€“ā€“ā€“ā€“ā€“ā€“ā€“ā€“ā€“ā€“ā€“ā€“ā€“ā€“ā€“ā€“ā€“ā€“ā€“ā€“ā€“

DR Peak RMS Duration Track
ā€“ā€“ā€“ā€“ā€“ā€“ā€“ā€“ā€“ā€“ā€“ā€“ā€“ā€“ā€“ā€“ā€“ā€“ā€“ā€“ā€“ā€“ā€“ā€“ā€“ā€“ā€“ā€“ā€“ā€“ā€“ā€“ā€“ā€“ā€“ā€“ā€“ā€“ā€“ā€“
DR11 -0.43 dB -15.94 dB 4:24 ?-Neal And Jack And Me
DR12 -0.42 dB -16.50 dB 3:52 ?-Heartbeat
DR13 -0.42 dB -17.49 dB 3:34 ?-Sartori In Tangier
DR12 -0.43 dB -15.44 dB 4:26 ?-Waiting Man
DR12 -0.43 dB -15.30 dB 4:50 ?-Neurotica
DR11 -2.40 dB -19.01 dB 3:23 ?-Two Hands
DR12 -0.43 dB -15.90 dB 4:13 ?-The Howler
DR11 -0.41 dB -18.91 dB 12:12 ?-Requiem (Extended Version)
DR14 -0.23 dB -16.55 dB 4:13 ?-Absent Lovers (Instrumental, Studio Recording)
ā€“ā€“ā€“ā€“ā€“ā€“ā€“ā€“ā€“ā€“ā€“ā€“ā€“ā€“ā€“ā€“ā€“ā€“ā€“ā€“ā€“ā€“ā€“ā€“ā€“ā€“ā€“ā€“ā€“ā€“ā€“ā€“ā€“ā€“ā€“ā€“ā€“ā€“ā€“ā€“

Number of tracks: 9
Official DR value: DR12

Samplerate: 48000 Hz
Channels: 6
Bits per sample: 24
Bitrate: 3867 kbps
Codec: FLAC
================================================================================


Thanks to the Original customer.
hitfile