Philippe Jaroussky - Bach & Telemann: Sacred Cantatas (2016) [TR24][OF]


Philippe Jaroussky - Bach & Telemann: Sacred Cantatas
Classical | FLAC (tracks) 24-bit/96 kHz | 74:47 min | 1.37 GB | Digital booklet
Label: Erato/Warner Classics | Tracks: 21 | Rls.date: 2016

For his first album devoted entirely to works sung in German, star countertenor Philippe Jaroussky has chosen four religious cantatas: two by J.S. Bach (including the much-loved ‘Ich habe genug’) and two by Georg Philipp Telemann. Jaroussky is accompanied by the Freiburger Barockorchester, which also joined him for live performances at Berlin in 2015 as part of the singer’s season as artist-in-residence at the city’s historic Konzerthaus.

TRACKLIST
Johann Sebastian Bach: Cantata No. 170, "Vergnügte Ruh, beliebte Seelenlust", BWV 170:
1. I. "Vergnügte Ruh, beliebte Seelenlust "
2. II. "Die Welt, das Sündenhaus"
3. III. "Wie jammern mich doch die verkehrten Herzen"
4. IV. "Wer sollte sich demnach"
5. V. "Mir ekelt mehr zu leben"
Georg Philipp Telemann: Cantata, "Der am Ölberg zagende Jesus", TWV 1, 364:
6. I. "Die stille Nacht umschloss den Kreis der Erden"
7. II. "Ich bin betrübt bis in den Tod"
8. III. "Er rung die heil'gen Hände"
9. IV. "Mein Vater! Wenn dir's wohlgefällt"
10. V. "Allein, die Angst nahm jeden Nu"
11. VI. "Kommet her, ihr Menschenkinder"
Johann Sebastian Bach: Cantata No. 82, "Ich habe genug", BWV 82:
12. I. "Ich habe genug"
13. II. "Ich habe genug"
14. III. "Schlummert ein, ihr matten Augen"
15. IV. "Mein Gott ! wann kommt das schöne - Nun !"
16. V. "Ich freue mich auf meinen Tod"
Georg Philipp Telemann: Cantata, "Jesus liegt in letzten Zügen", TWV 1, 983:
17. I. "Jesus liegt in letzten Zügen"
18. II. "Erbarmenswürd'ger Blick!"
19. III. "Mein liebster Heiland"
20. IV. "Jedoch, da dir's gefällt"
21. V. "Darauf freuet sich mein Geist"

foobar2000 1.3.6 / Замер динамического диапазона (DR) 1.1.1
Дата отчёта: 2016-11-22 00:01:33

––––––––––––––––––––––––––––––––––––––––
Анализ: Philippe Jaroussky / Bach & Telemann: Sacred Cantatas
––––––––––––––––––––––––––––––––––––––––

DR Пики RMS Продолжительность трека
––––––––––––––––––––––––––––––––––––––––
DR13 -0.41 дБ -17.28 дБ 6:14 01-Bach, JS: Cantata No. 170, "Vergnügte Ruh, beliebte Seelenlust", BWV 170: I. "Vergnügte Ruh, beliebte Seelenlust "
DR13 -1.86 дБ -19.30 дБ 1:24 02-Bach, JS: Cantata No. 170, "Vergnügte Ruh, beliebte Seelenlust", BWV 170: II. "Die Welt, das Sündenhaus"
DR14 -1.17 дБ -21.59 дБ 8:00 03-Bach, JS: Cantata No. 170, "Vergnügte Ruh, beliebte Seelenlust", BWV 170: III. "Wie jammern mich doch die verkehrten Herzen"
DR13 -1.77 дБ -17.69 дБ 1:08 04-Bach, JS: Cantata No. 170, "Vergnügte Ruh, beliebte Seelenlust", BWV 170: IV. "Wer sollte sich demnach"
DR13 -0.35 дБ -16.74 дБ 5:36 05-Bach, JS: Cantata No. 170, "Vergnügte Ruh, beliebte Seelenlust", BWV 170: V. "Mir ekelt mehr zu leben"
DR14 -0.17 дБ -20.99 дБ 2:57 06-Telemann: Cantata, "Der am Ölberg zagende Jesus", TWV 1, 364: I. "Die stille Nacht umschloss den Kreis der Erden"
DR13 -1.62 дБ -19.06 дБ 3:00 07-Telemann: Cantata, "Der am Ölberg zagende Jesus", TWV 1, 364: II. "Ich bin betrübt bis in den Tod"
DR12 -3.42 дБ -20.07 дБ 0:38 08-Telemann: Cantata, "Der am Ölberg zagende Jesus", TWV 1, 364: III. "Er rung die heil'gen Hände"
DR14 -0.33 дБ -18.99 дБ 3:27 09-Telemann: Cantata, "Der am Ölberg zagende Jesus", TWV 1, 364: IV. "Mein Vater! Wenn dir's wohlgefällt"
DR10 -4.33 дБ -19.58 дБ 0:33 10-Telemann: Cantata, "Der am Ölberg zagende Jesus", TWV 1, 364: V. "Allein, die Angst nahm jeden Nu"
DR13 -0.44 дБ -16.63 дБ 3:49 11-Telemann: Cantata, "Der am Ölberg zagende Jesus", TWV 1, 364: VI. "Kommet her, ihr Menschenkinder"
DR14 -2.57 дБ -20.14 дБ 7:27 12-Bach, JS: Cantata No. 82, "Ich habe genug", BWV 82: I. "Ich habe genug"
DR13 -3.01 дБ -19.87 дБ 1:06 13-Bach, JS: Cantata No. 82, "Ich habe genug", BWV 82: II. "Ich habe genug"
DR14 -1.73 дБ -20.55 дБ 10:39 14-Bach, JS: Cantata No. 82, "Ich habe genug", BWV 82: III. "Schlummert ein, ihr matten Augen"
DR12 -3.78 дБ -21.82 дБ 0:49 15-Bach, JS: Cantata No. 82, "Ich habe genug", BWV 82: IV. "Mein Gott! wann kommt das schöne - Nun!"
DR13 -0.20 дБ -15.42 дБ 3:40 16-Bach, JS: Cantata No. 82, "Ich habe genug", BWV 82: V. "Ich freue mich auf meinen Tod"
DR12 -1.81 дБ -18.02 дБ 5:19 17-Telemann: Cantata, "Jesus liegt in letzten Zügen", TWV 1, 983: I. "Jesus liegt in letzten Zügen"
DR13 -1.53 дБ -19.69 дБ 1:12 18-Telemann: Cantata, "Jesus liegt in letzten Zügen", TWV 1, 983: II. "Erbarmenswürd'ger Blick!"
DR14 -2.55 дБ -21.46 дБ 4:56 19-Telemann: Cantata, "Jesus liegt in letzten Zügen", TWV 1, 983: III. "Mein liebster Heiland"
DR12 -3.72 дБ -19.90 дБ 0:45 20-Telemann: Cantata, "Jesus liegt in letzten Zügen", TWV 1, 983: IV. "Jedoch, da dir's gefällt"
DR12 -0.29 дБ -14.94 дБ 2:18 21-Telemann: Cantata, "Jesus liegt in letzten Zügen", TWV 1, 983: V. "Darauf freuet sich mein Geist"
––––––––––––––––––––––––––––––––––––––––

Количество треков: 21
Реальные значения DR: DR13

Частота: 96000 Гц
Каналов: 2
Разрядность: 24
Битрейт: 2728 кбит/с
Кодек: FLAC
================================================================================


Thanks to the Original customer.
hitfile