Omer Avital - Abutbul Music (Bonus Tracks Edition) (2016) [TR24][OF]


Omer Avital - Abutbul Music (Bonus Tracks Edition)
Jazz, World | FLAC (tracks) 24-bit/88.2 kHz | 87:23 min | 1.80 GB | Digital booklet
Label: Jazz Village (570114D) | Tracks: 12 | Rls.date: 2016

On the heels of his fantastic 2014 album, New Song, bassist Omer Avital delivers an enthralling performance on Abutbul Music, his debut for the Paris-based Jazz Village label. The program embraces hard-bop as its guiding spirit, but uses numerous other genres as touchstones, including Israeli folk music, funk, Afro-beat and various Latin styles. Avital, who studied Arab music theory during a three-year hiatus from New York in the early 2000s, navigates these diverse idioms with sure-footed poise, as does his agile quintet, which includes the inventive pianist Yonathan Avishai, the effervescent drummer Ofri Nehemya, the keen tenor and soprano saxophonist Asaf Yuria and the astute tenor saxophonist Alexander Levin.

The group impresses with its near constant ability to weave multiple grooves into a seamless fabric. Songs like “Three Four,” “Afrik” and “New Yemenite Song” move through various guises, switching rhythms and meters with a dancer’s precision. Others hone in on a single genre and explore it through Avital’s distinctly groove-filtered lens: “Bed-Stuy” incorporates hushed, Mingus-flavored swing, complete with a wailing sax refrain, and “Muhammad’s Market” is soul-jazz to the core, sounding like a lost track from a Jazz Messengers album. An emotional high point, Avital’s “Bass Hijaz” is an unaccompanied showcase in which the bassist explores ornate melodic cells with a searching, voice-like tone. The song—like the rest of Abutbul Music—is inviting and friendly, and listeners won’t want it to end. (Brian Zimmerman, DownBeat Magazine, Editors’ Picks)

TRACKLIST
01. Muhammad's Market
02. Three Four
03. Afrik
04. New Yemenite Song
05. Bed-Stuy
06. Bass Hijaz (Intro To Ramat Gan)
07. Ramat Gan
08. Ayalat Hen
09. Eser (Middle Eastern Funk)
Bonus Tracks
10. Zohar Smiles
11. Dr. Yon
12. Me and You Tonigh

PERSONNEL
Omer Avital - bass, composer
Yonathan Avishai - piano
Asaf Yuria - tenor & soprano saxophones
Alexander Levin - tenor saxophone
Ofri Nehemya - drums

foobar2000 1.3.12 / Замер динамического диапазона (DR) 1.1.1
Дата отчёта: 2016-11-21 23:49:51

––––––––––––––––––––––––––––––––––––––––
Анализ: Omer Avital / Abutbul Music (Bonus Track Version)
––––––––––––––––––––––––––––––––––––––––

DR Пики RMS Продолжительность трека
––––––––––––––––––––––––––––––––––––––––
DR6 -0.81 дБ -8.92 дБ 7:01 01-Muhammad's Market
DR7 -0.78 дБ -9.81 дБ 8:35 02-Three Four
DR6 -0.79 дБ -8.30 дБ 8:21 03-Afrik
DR6 -0.77 дБ -9.13 дБ 10:24 04-New Yemenite Song
DR6 -0.79 дБ -9.38 дБ 7:38 05-Bed-Stuy
DR12 -0.86 дБ -19.41 дБ 4:32 06-Bass Hijaz (intro to Ramat Gan)
DR7 -0.79 дБ -9.15 дБ 7:46 07-Ramat gan
DR6 -0.77 дБ -9.19 дБ 8:56 08-Ayalat Hen
DR6 -0.82 дБ -8.68 дБ 6:58 09-Eser (Middle Eastern Funk)
DR8 -0.81 дБ -12.05 дБ 5:20 10-Zohar Smiles (Bonus Track)
DR6 -0.76 дБ -9.01 дБ 5:16 11-Dr. Yon (Bonus Track)
DR6 -0.77 дБ -8.07 дБ 6:36 12-Me and You Tonight (Bonus Track)
––––––––––––––––––––––––––––––––––––––––

Количество треков: 12
Реальные значения DR: DR7

Частота: 88200 Гц
Каналов: 2
Разрядность: 24
Битрейт: 3082 кбит/с
Кодек: FLAC
================================================================================


Thanks to the Original customer.
hitfile