Dean Martin - Welcome to My World (1967/2014) [TR24][OF]

Dean Martin - Welcome to My World
Vocal Jazz, Traditional Pop | FLAC (tracks) 24-bit/96 kHz | 26:38 min | 560 MB | Front Cover
Label: Legacy Recordings | Tracks: 10 | 1967/2014

Dean Martin's 16th and 17th Reprise albums, both released originally in 1967 and out of print for decades, make up the contents of this CD reissue. Martin, his producer Jimmy Bowen, and his arranger Ernie Freeman were still working out variants on the country-pop, soft rock arrangements that had given him a series of hits since 1964, and they had several modest successes from these selections, including "Nobody's Baby Again," "(Open Up the Door) Let the Good Times In," "Lay Some Happiness on Me," "In the Chapel in the Moonlight" (actually recorded a couple of years earlier), and "Little Ole Wine Drinker, Me." In addition, Bowen combed the country charts for suitable covers such as "He's Got You" (a recasting of Patsy Cline's "She's Got You") and Jim Reeves' "Welcome to My World" (another track recycled from an earlier Martin LP). Meanwhile, Engelbert Humperdinck ("Release Me") and Tom Jones ("The Green, Green Grass of Home") had found success by borrowing the Martin formula of making pop versions of country hits, and Bowen just snatched those songs back for him. The result, at least on this two-fer, is a good collection of country-pop. The two LPs individually were a bit skimpy; even together, they only run a little over 56 minutes. But they work together well, making one good CD of easygoing Dean Martin country-pop. Review by William Ruhlmann

01 In The Chapel In The Moonlight 2:35
02 Release Me 3:09
03 I Can't Help Remembering You 2:38
04 Turn To Me 2:30
05 Wallpaper Roses 2:06
06 Little Ole Wine Drinker Me 2:47
07 The Green, Green Grass Of Home 3:10
08 A Place In The Shade 2:15
09 Pride 2:38
10 Welcome To My World 2:20

foobar2000 1.3.7 / Замер динамического диапазона (DR) 1.1.1
Дата отчёта: 2016-11-22 17:40:24

Анализ: Dean Martin / Welcome to My World

DR Пики RMS Продолжительность трека
DR10 0.00 дБ -12.07 дБ 2:35 01-In the Chapel in the Moonlight
DR10 0.00 дБ -12.34 дБ 3:14 02-Release Me (And Let Me Love Again)
DR10 -0.76 дБ -13.31 дБ 2:47 03-I Can't Help Remembering You
DR11 -0.01 дБ -13.06 дБ 2:36 04-Turn to Me
DR10 -0.10 дБ -12.95 дБ 2:11 05-Wallpaper Roses
DR10 -0.39 дБ -13.23 дБ 2:51 06-Little Ole Wine Drinker, Me
DR11 -0.50 дБ -13.34 дБ 3:12 07-The Green, Green Grass of Home
DR10 -0.82 дБ -13.04 дБ 2:22 08-A Place in the Shade
DR10 -1.49 дБ -13.46 дБ 2:38 09-Pride
DR9 -2.22 дБ -13.82 дБ 2:20 10-Welcome to My World

Количество треков: 10
Реальные значения DR: DR10

Частота: 96000 Гц
Каналов: 2
Разрядность: 24
Битрейт: 3006 кбит/с
Кодек: FLAC

Thanks to the Original customer.