Maddalena Del Gobbo - Henriette, The Princess Of Viol (2016) [TR24][OF]


Maddalena Del Gobbo - Henriette, The Princess Of Viol
Classical | FLAC (tracks) 24-bit/96 kHz | 68:13 min | 1.37 GB | Front Cover
Label: Deutsche Grammophon | Tracks: 20 | Rls.date: 2016

Maddalena plays here together with Ewald Donhoffer (harpsichord) Christoph Prendl (Viola da Gamba) and Michele Carreca (theorbo). Henriette was a daughter of the King of France, Louis XV, and was a great viola da gamba virtuoso. It´s a recording of french music of the first half of the 18th century by composers as Marin Marais, Caix d`Hervelois and Jean Baptiste Forqueray. Join Maddalena and discover this musical homage to the princess of the viol, Henriette of France.

TRACKLIST
01. Suite en la mineur: Pièces à une et à trois Violes (Quatrième Livre) : Prelude Nr. 23
02. Suite en la mineur: Pièces à une et à trois Violes (Quatrième Livre) : Caprice Nr. 27
03. Suite en la mineur: Pièces à une et à trois Violes (Quatrième Livre) : Allemande Nr. 24
04. Suite en la mineur: Pièces à une et à trois Violes (Quatrième Livre) : Gavotte Nr. 25
05. Suite en la mineur: Pièces à une et à trois Violes (Quatrième Livre) : Gigue Nr. 26
06. Suite en la mineur: Pièces à une et à trois Violes (Quatrième Livre) : Muzette Nr. 28 & Nr. 29
07. Suite en la mineur: Pièces à une et à trois Violes (Quatrième Livre) : La Sautillante Nr. 30 & Double Nr. 31
08. Suite en la mineur: Pièces à une et à trois Violes (Quatrième Livre) : Rondeau Louré Nr. 32
09. Suite en sol majeur: Pièces a une et a deux Violes (Troisième Livre) : Prelude Nr. 92
10. Suite en sol majeur: Pièces a une et a deux Violes (Troisième Livre) : Allemande Nr. 94
11. Suite en sol majeur: Pièces a une et a deux Violes (Troisième Livre) : La Muzette Nr. 105
12. Suite en sol majeur: Pièces a une et a deux Violes (Troisième Livre) : La Guitare Nr. 107
13. Suite en sol majeur: Pièces de Viole (Deuxième Livre) : Chaconne en Rondeau Nr. 82
14. Quatre Suites de Pieces pour la Viole, Op. 3 : La Monguichet
15. Second Livre de Pièces de Viole avec la Basse Continue : La Toute Belle
16. Premier Livre de Pieces de Viole avec la Basse-Continuë : Plainte Nr. 54
17. Suite en la mineur: Pièces à une et à trois Violes (Quatrième Livre) : L'Arabesque Nr. 80
18. Cinquième Livre de Pieces de Viole : Muzette L'Henriette
19. Movements composed for Suite No.3 in D by Antoine Forqueray : La Du Vaucel
20. Movements composed for Suite No.3 in D by Antoine Forqueray : La Morangis

foobar2000 1.3.7 / Замер динамического диапазона (DR) 1.1.1
Дата отчёта: 2016-11-22 19:43:20

––––––––––––––––––––––––––––––––––––––––
Анализ: Maddalena Del Gobbo, Associated Performer, Main Artist, Viola da Gamba - Michele Carreca, Associated Performer, Main Artist, Theorbo - Ewald Donhoffer, Associated Performer, Cembalo, Main Artist - Christoph Prendl, Associated Performer, Main Artist, Viola da Gamba - Georg Burdicek, Recording Engineer, Recording Producer - Jean-Baptiste-Antoine Forqueray, Composer / Ewald Donhoffer : Henriette, The Princess Of Viol (1-2)
Maddalena Del Gobbo, Associated Performer, Main Artist, Viola da Gamba - Michele Carreca, Associated Performer, Main Artist, Theorbo - Ewald Donhoffer, Associated Performer, Cembalo, Main Artist - Christoph Prendl, Associated Performer, Main Artist, Viola da Gamba - Georg Burdicek, Recording Engineer, Recording Producer - Louis de Caix D'hervelois, Author, Composer / Ewald Donhoffer : Henriette, The Princess Of Viol (3-6)
Maddalena Del Gobbo, Associated Performer, Main Artist, Viola da Gamba - Michele Carreca, Associated Performer, Main Artist, Theorbo - Ewald Donhoffer, Associated Performer, Cembalo, Main Artist - Christoph Prendl, Associated Performer, Main Artist, Viola da Gamba - Georg Burdicek, Recording Engineer, Recording Producer - Marin Marais, Author, Composer / Ewald Donhoffer : Henriette, The Princess Of Viol (7-20)
––––––––––––––––––––––––––––––––––––––––

DR Пики RMS Продолжительность трека
––––––––––––––––––––––––––––––––––––––––
DR13 -6.94 дБ -23.96 дБ 4:04 19-Movements composed for Suite No.3 in D by Antoine Forqueray:La Du Vaucel
DR12 -2.09 дБ -18.07 дБ 8:07 20-Movements composed for Suite No.3 in D by Antoine Forqueray:La Morangis
DR14 -1.14 дБ -18.70 дБ 3:59 14-Quatre Suites de Pieces pour la Viole, Op. 3:La Monguichet
DR11 -2.89 дБ -18.38 дБ 2:41 15-Second Livre de Pièces de Viole avec la Basse Continue:La Toute Belle
DR12 -5.75 дБ -20.23 дБ 2:30 16-Premier Livre de Pieces de Viole avec la Basse-Continuë:Plainte Nr. 54
DR13 -2.34 дБ -18.40 дБ 2:28 18-Cinquième Livre de Pieces de Viole:Muzette L'Henriette
DR13 -0.83 дБ -17.90 дБ 2:05 1-Suite en la mineur: Pièces à une et à trois Violes (Quatrième Livre):Prelude Nr. 23
DR11 -0.25 дБ -17.38 дБ 1:05 2-Suite en la mineur: Pièces à une et à trois Violes (Quatrième Livre):Caprice Nr. 27
DR12 -3.24 дБ -18.39 дБ 2:24 3-Suite en la mineur: Pièces à une et à trois Violes (Quatrième Livre):Allemande Nr. 24
DR12 -0.75 дБ -16.93 дБ 1:17 4-Suite en la mineur: Pièces à une et à trois Violes (Quatrième Livre):Gavotte Nr. 25
DR11 -2.09 дБ -17.69 дБ 1:53 5-Suite en la mineur: Pièces à une et à trois Violes (Quatrième Livre):Gigue Nr. 26
DR12 -5.04 дБ -20.09 дБ 3:38 6-Suite en la mineur: Pièces à une et à trois Violes (Quatrième Livre):Muzette Nr. 28 & Nr. 29
DR12 -3.08 дБ -19.55 дБ 1:10 7-Suite en la mineur: Pièces à une et à trois Violes (Quatrième Livre):La Sautillante Nr. 30 & Double Nr. 31
DR13 -0.38 дБ -19.38 дБ 6:54 8-Suite en la mineur: Pièces à une et à trois Violes (Quatrième Livre):Rondeau Louré Nr. 32
DR11 -0.92 дБ -18.85 дБ 1:36 9-Suite en sol majeur: Pièces a une et a deux Violes (Troisième Livre):Prelude Nr. 92
DR13 -2.56 дБ -17.67 дБ 3:49 10-Suite en sol majeur: Pièces a une et a deux Violes (Troisième Livre):Allemande Nr. 94
DR12 -2.11 дБ -19.24 дБ 3:25 11-Suite en sol majeur: Pièces a une et a deux Violes (Troisième Livre):La Muzette Nr. 105
DR12 -5.08 дБ -20.85 дБ 4:43 12-Suite en sol majeur: Pièces a une et a deux Violes (Troisième Livre):La Guitare Nr. 107
DR12 -1.62 дБ -17.53 дБ 4:45 13-Suite en sol majeur: Pièces de Viole (Deuxième Livre):Chaconne en Rondeau Nr. 82
DR14 -2.74 дБ -19.66 дБ 5:53 17-Suite en la mineur: Pièces à une et à trois Violes (Quatrième Livre):L'Arabesque Nr. 80
––––––––––––––––––––––––––––––––––––––––

Количество треков: 20
Реальные значения DR: DR12

Частота: 96000 Гц
Каналов: 2
Разрядность: 24
Битрейт: 2785 кбит/с
Кодек: FLAC
================================================================================


Thanks to the Original customer.
hitfile