Sophie Pacini - Beethoven & Liszt: Solo Piano Works (2016) [TR24][OF]


Sophie Pacini - Beethoven & Liszt: Solo Piano Works
Classical | FLAC (tracks) 24-bit/96 kHz | 76:36 min | 1.28 GB | Digital booklet
Label: Warner Classics | Tracks: 09 | Rls.date: 2016

Born in Munich in 1991, Pacini began her studies at the age of ten as a pupil of Karl-Heinz Kämmerling at the Salzburg Mozarteum, where she was accepted two years later by the newly founded Institute for Highly Gifted Students. From 2007 she continued her studies in master classes given by Pavel Gililov, completing her diploma in 2011 with honours. In 2010 she became acquainted with Martha Argerich, who invited her the following year to give a recital as part of the Martha Argerich Project in Lugano and who has since become an important figure in the young pianist’s career.

TRACKLIST
01. Piano Sonata No. 21 in C Major, Op. 53 '"Waldstein": I. Allegro con brio
02. Piano Sonata No. 21 in C Major, Op. 53 "Waldstein": II. Introduzione. Adagio molto
03. Piano Sonata No. 21 in C Major, Op. 53 "Waldstein": III. Rondo: Allegretto moderato - Prestissimo
04. 6 Consolations, S. 172: No. 1 in E Major
05. 6 Consolations, S. 172: No. 2 in E Major
06. Overture to Tannhäuser - Concert Paraphrase, S. 442
07. Reminiscences de Don Juan, S. 418
08. Liebestraum No. 3 in A-Flat Major, S. 541: III. "O lieb so lang du lieben kannst"
09. Hungarian Rhapsody No. 6 in D-Flat Major, S. 244/6

foobar2000 1.3.7 / Замер динамического диапазона (DR) 1.1.1
Дата отчёта: 2016-11-23 21:37:29

––––––––––––––––––––––––––––––––––––––––
Анализ: Sophie Pacini / Solo Piano - Beethoven & Liszt
––––––––––––––––––––––––––––––––––––––––

DR Пики RMS Продолжительность трека
––––––––––––––––––––––––––––––––––––––––
DR14 -1.74 дБ -21.54 дБ 11:04 01-Beethoven: Piano Sonata No. 21 in C Major, Op. 53 "Waldstein": I. Allegro con brio
DR14 -10.42 дБ -31.42 дБ 4:05 02-Beethoven: Piano Sonata No. 21 in C Major, Op. 53 "Waldstein": II. Introduzione. Adagio molto
DR13 -1.71 дБ -20.12 дБ 9:53 03-Beethoven: Piano Sonata No. 21 in C Major, Op. 53 "Waldstein": III. Rondo: Allegretto moderato - Prestissimo
DR12 -16.82 дБ -34.06 дБ 1:38 04-Liszt: 6 Consolations, S. 172: No. 1 in E Major
DR14 -5.81 дБ -27.12 дБ 3:56 05-Liszt: 6 Consolations, S. 172: No. 2 in E Major
DR12 -0.62 дБ -16.77 дБ 16:34 06-Liszt: Overture to Tannhäuser - Concert Paraphrase, S. 442
DR12 -0.39 дБ -16.65 дБ 17:07 07-Liszt: Reminiscences de Don Juan, S. 418
DR13 -2.72 дБ -22.98 дБ 5:03 08-Liszt: Liebestraum in A-Flat Major, S. 541: III. "O lieb so lang du lieben kannst"
DR13 -0.66 дБ -19.11 дБ 7:19 09-Liszt: Hungarian Rhapsody No. 6 in D-Flat Major, S. 244/6
––––––––––––––––––––––––––––––––––––––––

Количество треков: 9
Реальные значения DR: DR13

Частота: 96000 Гц
Каналов: 2
Разрядность: 24
Битрейт: 2396 кбит/с
Кодек: FLAC
================================================================================


Thanks to the Original customer.
hitfile