Jean-Michel Jarre - Oxygene Trilogy (2016) [TR24][OF]


Jean-Michel Jarre - Oxygene Trilogy
Electronic, Ambient | FLAC (tracks) 24-bit/48 kHz | 160:25 min | 1.91 GB | Front Cover
Label: Sony Music | Tracks: 21 | Rls.date: 2016

40 years after the huge international impact of OXYGENE, and 20 years from its second volume OXYGENE 7-13, Jean-Michel Jarre is fulfilling a trilogy of albums with OXYGENE 3, containing seven newly composed and recorded pieces, consistently titled parts 14-20. His inspiration for the newly added parts on OXYGENE 3 was not to go back in time, but to add a sense of “now” to his iconic piece of work. Plunging into the environment of OXYGENE with its highly original dark, moody and at times quite upbeat musical language, Jarre references some of the music from his entire body of work on OXYGENE 3. It’s a state-of-the-art recording, embracing both classic and modern ways of music production.

TRACKLIST

CD1
1. Oxygene, Pt. 1
2. Oxygene, Pt. 2
3. Oxygene, Pt. 3
4. Oxygene, Pt. 4
5. Oxygene, Pt. 5
6. Oxygene, Pt. 6

CD2
1. Oxygene, Pt. 7
2. Oxygene, Pt. 8
3. Oxygene, Pt. 9
4. Oxygene, Pt. 10
5. Oxygene, Pt. 11
6. Oxygene, Pt. 12
7. Oxygene, Pt. 13

CD3
1. Oxygene, Pt. 14
2. Oxygene, Pt. 15
3. Oxygene, Pt. 16
4. Oxygene, Pt. 17
5. Oxygene, Pt. 18
6. Oxygene, Pt. 19
7. Oxygene, Pt. 20

foobar2000 1.3.7 / Замер динамического диапазона (DR) 1.1.1
Дата отчёта: 2016-12-03 20:27:40

––––––––––––––––––––––––––––––––––––––––
Анализ: Jean Michel Jarre / Oxygene Trilogy
––––––––––––––––––––––––––––––––––––––––

DR Пики RMS Продолжительность трека
––––––––––––––––––––––––––––––––––––––––
DR10 -1.21 дБ -14.36 дБ 7:39 1-Oxygene, Pt. 1
DR8 -1.21 дБ -10.88 дБ 7:47 2-Oxygene, Pt. 2
DR8 -1.21 дБ -12.44 дБ 3:16 3-Oxygene, Pt. 3
DR8 -1.20 дБ -11.32 дБ 4:07 4-Oxygene, Pt. 4
DR10 -1.21 дБ -15.66 дБ 10:15 5-Oxygene, Pt. 5
DR11 -1.21 дБ -15.54 дБ 6:37 6-Oxygene, Pt. 6
DR7 -1.20 дБ -10.46 дБ 11:41 1-Oxygene, Pt. 7
DR7 -1.23 дБ -9.36 дБ 3:54 2-Oxygene, Pt. 8
DR8 -1.34 дБ -11.89 дБ 6:13 3-Oxygene, Pt. 9
DR7 -1.28 дБ -9.85 дБ 4:16 4-Oxygene, Pt. 10
DR7 -1.27 дБ -10.17 дБ 4:58 5-Oxygene, Pt. 11
DR7 -1.34 дБ -10.27 дБ 5:41 6-Oxygene, Pt. 12
DR7 -1.33 дБ -11.11 дБ 4:25 7-Oxygene, Pt. 13
DR6 -1.23 дБ -8.61 дБ 5:28 1-Oxygene, Pt. 14
DR6 -1.21 дБ -9.58 дБ 6:41 2-Oxygene, Pt. 15
DR5 -1.20 дБ -8.51 дБ 6:50 3-Oxygene, Pt. 16
DR5 -1.22 дБ -8.89 дБ 4:21 4-Oxygene, Pt. 17
DR6 -1.24 дБ -9.33 дБ 2:49 5-Oxygene, Pt. 18
DR6 -1.21 дБ -10.86 дБ 5:45 6-Oxygene, Pt. 19
DR6 -1.23 дБ -10.77 дБ 7:59 7-Oxygene, Pt. 20
DR6 -1.20 дБ -9.48 дБ 39:52 8-Continuous Mix
––––––––––––––––––––––––––––––––––––––––

Количество треков: 21
Реальные значения DR: DR7

Частота: 48000 Гц
Каналов: 2
Разрядность: 24
Битрейт: 1658 кбит/с
Кодек: FLAC
================================================================================


Thanks to the Original customer.
hitfile