Murray Perahia - Bach: The French Suites (2016) [TR24][OF]


Murray Perahia - Bach: The French Suites
Classical | FLAC (tracks) 24-bit/96 kHz | 91:16 min | 1.51 GB | Digital booklet
Label: Deutsche Grammophon | Tracks: 39 | Rls.date: 2016

One of the world’s best-loved artists, and a longtime proponent of Bach on the modern piano, Murray Perahia has been hailed as one of the composer’s “most rewarding interpreters both live and on disc.” For his debut recording on Deutsche Grammophon, Perahia turns to the six French Suites – works that are at once delicate, profound, tender and joyful, and all suffused with the rhythmic vitality of the dance. Perahia produced a series of award-winning recordings of Bach's keyboard works in the late 1990s and since then Bach has become his bench mark. Bach’s French Suites are new to his recording catalogue. It is his first release in the past 5 years and first release for DG.

TRACKLIST
01. J.S. Bach: French Suite No.1 In D Minor, BWV 812 - 1. Allemande
02. J.S. Bach: French Suite No.1 In D Minor, BWV 812 - 2. Courante
03. J.S. Bach: French Suite No.1 In D Minor, BWV 812 - 3. Sarabande
04. J.S. Bach: French Suite No.1 In D Minor, BWV 812 - 4. Menuet I-II
05. J.S. Bach: French Suite No.1 In D Minor, BWV 812 - 5. Gigue
06. J.S. Bach: French Suite No.2 In C Minor, BWV 813 - 1. Allemande
07. J.S. Bach: French Suite No.2 In C Minor, BWV 813 - 2. Courante
08. J.S. Bach: French Suite No.2 In C Minor, BWV 813 - 3. Sarabande
09. J.S. Bach: French Suite No.2 In C Minor, BWV 813 - 4. Air
10. J.S. Bach: French Suite No.2 In C Minor, BWV 813 - 5. Menuet I-II
11. J.S. Bach: French Suite No.2 In C Minor, BWV 813 - 6. Gigue
12. J.S. Bach: French Suite No.3 In B Minor, BWV 814 - 1. Allemande
13. J.S. Bach: French Suite No.3 In B Minor, BWV 814 - 2. Courante
14. J.S. Bach: French Suite No.3 In B Minor, BWV 814 - 3. Sarabande
15. J.S. Bach: French Suite No.3 In B Minor, BWV 814 - 4. Anglaise
16. J.S. Bach: French Suite No.3 In B Minor, BWV 814 - 5. Menuet I-II
17. J.S. Bach: French Suite No.3 In B Minor, BWV 814 - 6. Gigue
18. J.S. Bach: French Suite No.4 In E Flat, BWV 815 - 1. Allemande
19. J.S. Bach: French Suite No.4 In E Flat, BWV 815 - 2. Courante
20. J.S. Bach: French Suite No.4 In E Flat, BWV 815 - 3. Sarabande
21. J.S. Bach: French Suite No.4 In E Flat, BWV 815 - 4. Gavotte I-II
22. J.S. Bach: French Suite No.4 In E Flat, BWV 815 - 5. Menuet
23. J.S. Bach: French Suite No.4 In E Flat, BWV 815 - 6. Air
24. J.S. Bach: French Suite No.4 In E Flat, BWV 815 - 7. Gigue
25. J.S. Bach: French Suite No.5 In G, BWV 816 - 1. Allemande
26. J.S. Bach: French Suite No.5 In G, BWV 816 - 2. Courante
27. J.S. Bach: French Suite No.5 In G, BWV 816 - 3. Sarabande
28. J.S. Bach: French Suite No.5 In G, BWV 816 - 4. Gavotte
29. J.S. Bach: French Suite No.5 In G, BWV 816 - 5. Bourrée
30. J.S. Bach: French Suite No.5 In G, BWV 816 - 6. Loure
31. J.S. Bach: French Suite No.5 In G, BWV 816 - 7. Gigue
32. J.S. Bach: French Suite No.6 In E, BWV 817 - 1. Allemande
33. J.S. Bach: French Suite No.6 In E, BWV 817 - 2. Courante
34. J.S. Bach: French Suite No.6 In E, BWV 817 - 3. Sarabande
35. J.S. Bach: French Suite No.6 In E, BWV 817 - 4. Gavotte
36. J.S. Bach: French Suite No.6 In E, BWV 817 - 5. Polonaise
37. J.S. Bach: French Suite No.6 In E, BWV 817 - 6. Petit Menuet
38. J.S. Bach: French Suite No.6 In E, BWV 817 - 7. Bourrée
39. J.S. Bach: French Suite No.6 In E, BWV 817 - 8. Gigue

foobar2000 1.3.7 / Замер динамического диапазона (DR) 1.1.1
Дата отчёта: 2016-12-03 21:42:26

––––––––––––––––––––––––––––––––––––––––
Анализ: Murray Perahia / Johann Sebastian Bach: The French Suites
––––––––––––––––––––––––––––––––––––––––

DR Пики RMS Продолжительность трека
––––––––––––––––––––––––––––––––––––––––
DR11 -5.23 дБ -20.08 дБ 3:31 01-French Suite No.1 In D Minor, BWV 812: 1. Allemande
DR11 -3.14 дБ -16.59 дБ 1:55 02-French Suite No.1 In D Minor, BWV 812: 2. Courante
DR12 -5.67 дБ -21.99 дБ 2:54 03-French Suite No.1 In D Minor, BWV 812: 3. Sarabande
DR11 -4.39 дБ -18.97 дБ 3:02 04-French Suite No.1 In D Minor, BWV 812: 4. Menuet I-II
DR12 -1.56 дБ -16.26 дБ 2:58 05-French Suite No.1 In D Minor, BWV 812: 5. Gigue
DR11 -6.95 дБ -21.36 дБ 2:51 06-French Suite No.2 In C Minor, BWV 813: 1. Allemande
DR12 -1.65 дБ -16.62 дБ 1:44 07-French Suite No.2 In C Minor, BWV 813: 2. Courante
DR12 -4.92 дБ -20.92 дБ 3:07 08-French Suite No.2 In C Minor, BWV 813: 3. Sarabande
DR12 -4.75 дБ -19.81 дБ 1:21 09-French Suite No.2 In C Minor, BWV 813: 4. Air
DR12 -5.00 дБ -20.94 дБ 3:07 10-French Suite No.2 In C Minor, BWV 813: 5. Menuet I-II
DR12 -1.63 дБ -17.71 дБ 2:03 11-French Suite No.2 In C Minor, BWV 813: 6. Gigue
DR12 -7.46 дБ -21.64 дБ 3:10 12-French Suite No.3 In B Minor, BWV 814: 1. Allemande
DR11 -4.58 дБ -18.14 дБ 2:00 13-French Suite No.3 In B Minor, BWV 814: 2. Courante
DR10 -8.07 дБ -22.94 дБ 2:50 14-French Suite No.3 In B Minor, BWV 814: 3. Sarabande
DR11 -4.77 дБ -18.93 дБ 1:19 15-French Suite No.3 In B Minor, BWV 814: 4. Anglaise
DR12 -6.41 дБ -21.71 дБ 3:08 16-French Suite No.3 In B Minor, BWV 814: 5. Menuet I-II
DR11 -3.75 дБ -17.58 дБ 2:16 17-French Suite No.3 In B Minor, BWV 814: 6. Gigue
DR11 -3.60 дБ -18.14 дБ 2:50 18-French Suite No.4 In E Flat, BWV 815: 1. Allemande
DR11 -2.78 дБ -16.94 дБ 1:50 19-French Suite No.4 In E Flat, BWV 815: 2. Courante
DR11 -5.41 дБ -21.36 дБ 2:40 20-French Suite No.4 In E Flat, BWV 815: 3. Sarabande
DR12 -2.40 дБ -16.53 дБ 3:47 21-French Suite No.4 In E Flat, BWV 815: 4. Gavotte I-II
DR11 -5.73 дБ -21.59 дБ 0:58 22-French Suite No.4 In E Flat, BWV 815: 5. Menuet
DR10 -4.18 дБ -18.47 дБ 1:39 23-French Suite No.4 In E Flat, BWV 815: 6. Air
DR12 -0.01 дБ -15.94 дБ 2:24 24-French Suite No.4 In E Flat, BWV 815: 7. Gigue
DR12 -4.35 дБ -20.00 дБ 3:08 25-French Suite No.5 In G, BWV 816: 1. Allemande
DR11 -2.57 дБ -17.84 дБ 1:43 26-French Suite No.5 In G, BWV 816: 2. Courante
DR12 -6.03 дБ -22.31 дБ 4:09 27-French Suite No.5 In G, BWV 816: 3. Sarabande
DR11 -3.96 дБ -19.39 дБ 1:15 28-French Suite No.5 In G, BWV 816: 4. Gavotte
DR12 -3.16 дБ -17.93 дБ 1:19 29-French Suite No.5 In G, BWV 816: 5. Bourrée
DR11 -5.93 дБ -22.20 дБ 1:56 30-French Suite No.5 In G, BWV 816: 6. Loure
DR11 -0.29 дБ -15.76 дБ 3:28 31-French Suite No.5 In G, BWV 816: 7. Gigue
DR12 -5.68 дБ -20.42 дБ 2:43 32-French Suite No.6 In E, BWV 817: 1. Allemande
DR11 -5.19 дБ -20.14 дБ 1:41 33-French Suite No.6 In E, BWV 817: 2. Courante
DR12 -6.15 дБ -22.36 дБ 3:17 34-French Suite No.6 In E, BWV 817: 3. Sarabande
DR13 -5.62 дБ -21.06 дБ 1:06 35-French Suite No.6 In E, BWV 817: 4. Gavotte
DR11 -5.42 дБ -21.49 дБ 1:29 36-French Suite No.6 In E, BWV 817: 5. Polonaise
DR12 -5.94 дБ -21.92 дБ 0:59 37-French Suite No.6 In E, BWV 817: 6. Petit Menuet
DR11 -2.91 дБ -16.96 дБ 1:24 38-French Suite No.6 In E, BWV 817: 7. Bourrée
DR11 -2.64 дБ -17.01 дБ 2:32 39-French Suite No.6 In E, BWV 817: 8. Gigue
––––––––––––––––––––––––––––––––––––––––

Количество треков: 39
Реальные значения DR: DR11

Частота: 96000 Гц
Каналов: 2
Разрядность: 24
Битрейт: 2369 кбит/с
Кодек: FLAC
================================================================================


Thanks to the Original customer.
hitfile