Candlebox - Disappearing in Airports (2016) [TR24][OF]


Candlebox - Disappearing in Airports
Alt. Rock | FLAC (tracks) 24-bit/48 kHz | 46:59 min | 611 MB | Front Cover
Label: Eternal Sound Records | Tracks: 11 | Rls.date: 2016

Candlebox is one of the most influential multi-platinum rock bands to come out of the Alternative Rock music movement. Known for introspective, poetically candid songs that stood out among the music scene, the band's 'Far Behind' and 'You' singles are still two of the most played recurrent songs on Rock and Alternative Radio. Their new single 'Vexatious' proves to be next in line with its infectious and "true to its roots" Candlebox signature sound. Their five previous full length releases remain favourites amonst the band's rabid fanbase with their brand new album, 'Disappearing in Airports' being eagerly anticipated. With frontman Kevin Martin at the helm, they continue to be one of the most consistent live bands, with shows ranging from the Carolina Rebellion festival, Lollapalooza Chile, and an entire U.S. and international tour set throughout 2016. Candlebox continues to write and redefine Alternative/Rock music with an identity, intellect and honesty that has led to over 5 million albums sold in the US alone since 1993.

TRACKLIST
01. Only Because of You 03:54
02. Vexatious 03:47
03. Supernova 03:42
04. Alive at Last 05:33
05. I've Got a Gun 04:21
06. I Want It Back 04:08
07. The Bridge 05:08
08. Spotlights 05:10
09. Crazy 03:24
10. Gods Gift 03:14
11. Keep on Waiting 04:36

foobar2000 1.3.7 / Замер динамического диапазона (DR) 1.1.1
Дата отчёта: 2016-12-03 22:24:46

––––––––––––––––––––––––––––––––––––––––
Анализ: Candlebox / Disappearing In Airports
––––––––––––––––––––––––––––––––––––––––

DR Пики RMS Продолжительность трека
––––––––––––––––––––––––––––––––––––––––
DR5 0.00 дБ -5.77 дБ 3:54 1-Only Because Of You
DR5 0.00 дБ -6.25 дБ 3:48 2-Vexacious
DR5 0.00 дБ -5.90 дБ 3:43 3-Supernova
DR5 0.00 дБ -6.45 дБ 5:34 4-Alive At Last
DR5 0.00 дБ -6.01 дБ 4:21 5-I've Got A Gun
DR5 0.00 дБ -6.10 дБ 4:10 6-I Want It Back
DR5 0.00 дБ -6.26 дБ 5:08 7-The Bridge
DR5 0.00 дБ -7.36 дБ 5:10 8-Spotlights
DR5 0.00 дБ -5.75 дБ 3:25 9-Crazy
DR5 0.00 дБ -5.77 дБ 3:14 10-God's Gift
DR5 0.00 дБ -5.97 дБ 4:36 11-Keep On Waiting
––––––––––––––––––––––––––––––––––––––––

Количество треков: 11
Реальные значения DR: DR5

Частота: 48000 Гц
Каналов: 2
Разрядность: 24
Битрейт: 1878 кбит/с
Кодек: FLAC
================================================================================


Thanks to the Original customer.