Andrea Bocelli - Romanza (20th Anniversary Edition Deluxe) (1996/2016) [Official Digital Download 24bit/96kHz]


Andrea Bocelli - Romanza (20th Anniversary Edition Deluxe) (1996/2016)
Classical, Operatic Pop, Vocal | FLAC (tracks), 24bit/96kHz | 01:27:36 h. | 1,95 Gb (incl 5%) | Front Cover
Label: Verve International | Tracks: 20 | Released: 2016 (1996)

Andrea Bocelli's Romanza is the bestselling classical crossover album of all time, having sold well over 17 million copies globally. To mark 20 years since the album's original release, and the success of 'Con Te Partiro' and 'Time To Say Goodbye' a 20th Anniversary Edition was released in November 2016. The original album has been remastered and now include bonus tracks.

Release of this album: 1996, January [CD Sugar Music, Cat.# SGR D 77801, Italy]
Release of this HDtracks edition: 2016, November, 18 [Label: Verve International]
℗© 2016 Sugar Srl

Note: Re-Master, Official Digital Download. This album download features digital front cover art only. Liner notes are not available.

Credits:
Management – Almud Edizioni Musicali Srl
Producer – Mauro Malavasi (tracks: 1, 3, 6 to 9, 12, 13), Michele Torpedine (tracks: 2, 4, 5, 10, 11)
Written-By – Andrea Bocelli




Tracklist:

01. Con Te Partirò (04:12)
02. Vivere (feat. Gerardina Trovato) (04:03)
03. Per Amore (04:43)
04. Il Mare Calmo Della Sera (04:42)
05. Caruso (05:19)
06. Macchine Da Guerra (04:10)
07. Le Tue Parole (04:00)
08. Vivo Per Lei (feat. Giorgia) (04:26)
09. Romanza (03:45)
10. La Luna Che Non C'è (04:31)
11. Rapsodia (05:30)
12. Voglio Restare Così (03:53)
13. E Chiove (04:26)
14. Miserere - Live (feat. John Miles) (04:19)
15. Time To Say Goodbye (Con Te Partiro) (feat. Sarah Brightman) (04:06)
16. Con Te Partirò (Orchestra 2016 Version) (04:15)
17. Con Te Partirò (Piano & Voice 2016 Version) (04:04)
18. Il Mare Calmo Della Sera (2016 Version) (04:38)
19. Con Te Partirò (Instrumental 2016 Version) (04:16)
20. Con Te Partirò (by Budapest Art Orchestra & Budapest Art Choir) (04:17)

––––––––––––––––––––––––––––––––––––––––
Analyzed: Andrea Bocelli / Romanza
––––––––––––––––––––––––––––––––––––––––

DR Peak RMS Duration Track
––––––––––––––––––––––––––––––––––––––––
DR8 0.00 dB -11.60 dB 4:12 01-Con Te Partirò
DR8 0.00 dB -10.99 dB 4:03 02-Vivere (feat. Gerardina Trovato)
DR9 0.00 dB -11.59 dB 4:43 03-Per amore
DR7 0.00 dB -9.96 dB 4:42 04-Il mare calmo della sera
DR8 0.00 dB -11.96 dB 5:19 05-Caruso
DR9 0.00 dB -12.19 dB 4:10 06-Macchine da guerra
DR10 -0.01 dB -12.94 dB 4:00 07-Le tue parole
DR8 0.00 dB -10.57 dB 4:26 08-Vivo per lei (feat. Giorgia)
DR9 0.00 dB -13.00 dB 3:45 09-Romanza
DR8 0.00 dB -11.08 dB 4:31 10-La luna che non c'e
DR10 0.00 dB -13.02 dB 5:30 11-Rapsodia
DR9 -0.07 dB -10.62 dB 3:53 12-Voglio restare cosi
DR9 0.00 dB -11.11 dB 4:26 13-E chiove
DR8 0.00 dB -10.43 dB 4:19 14-Miserere - Live (feat. John Miles)
DR7 0.00 dB -9.14 dB 4:06 15-Time To Say Goodbye (Con Te Partirò) (feat. Sarah Brightman)
DR7 0.00 dB -9.42 dB 4:15 16-Con Te Partirò (Orchestra 2016 Version)
DR11 -0.36 dB -15.56 dB 4:04 17-Con Te Partirò (Piano & Voice 2016 Version)
DR8 0.00 dB -10.83 dB 4:38 18-Il mare calmo della sera (2016 Version)
DR8 -0.01 dB -10.57 dB 4:16 19-Con Te Partirò (Instrumental 2016 Version)
DR8 -0.02 dB -10.79 dB 4:17 20-Con Te Partirò (by Budapest Art Orchestra & Budapest Art Choir)
––––––––––––––––––––––––––––––––––––––––

Number of tracks: 20
Official DR value: DR8

Samplerate: 96000 Hz
Channels: 2
Bits per sample: 24
Bitrate: 2941 kbps
Codec: FLAC
================================================================================