Barocktrompeten Ensemble Berlin, Johann Plietzsch - Mr. Handel's Trumpeters (2015) [TR24][OF]


Barocktrompeten Ensemble Berlin, Johann Plietzsch - Mr. Handel's Trumpeters
Classical | FLAC (tracks) 24-bit/88.2 kHz | 57:23 min | 0.98 GB | Digital booklet
Label: Raumklang | Tracks: 33 | Rls.date: 2015

George Frideric Handel had an outstanding trumpeter in his orchestra: Valentine Snow. "Mr. Handel's Trumpeter," as he was later called, inspired Handel to write numerous tailor-made trumpet parts for him. In contrast to his contemporaries, Handel was interested less in virtuosity, than in mellifluous sound and dramatic effect, as reflected in the pieces on this CD. The point of departure for the recording is provided by the trumpet music of Purcell and his contemporaries, music that clearly displays Italian influence and formed the foundation for Handel's compositions.
Johann Plietzsch lets his Baroque Trumpet Ensemble Berlin resound richly colored on this third Raumklang CD with eight trumpets, timpani, and basso continuo, perfectly balanced dramatically with the soft tones of the lute and organ.

TRACKLIST

Henry Purcell (1659 - 1695)
Who can from joy refrain ?, Z. 342
1. I. Overture 02:30
2. II. Larghetto 01:12
3. III. March 01:22
4. IV. Adagio 00:49
5. V. Chaconne 03:51
6. Crown the altar, deck the shrine, Z. 321/6 02:28

Georg Friedrich Händel (1685-1759)
Suite aus: Watermusic, HWV 348-350
7. I. Overture 02:05
8. II. Hornpipe 03:14
9. III. Air 01:44
10. IV. Lentement 01:40
11. V. Minuet 01:03
12. VI. Air 01:34
13. VII. Bourée 01:07

John Dowland (1563-1626)
14. A Fancy 03:08

Godfrey Keller (ca. 1650-1704)
Royal Trumpet Suite
15. I. Allegro 00:55
16. II. Roundo 01:45
17. III. Menuett 01:08
18. IV. Fugue 01:40
19. V. Adagio 00:46
20. VI. Chaconne 03:30
21. VII. Aria 01:24

Georg Friedrich Händel (1685-1759)
22. Suite in F major, HWV 427 03:30

Jeremiah Clarke (ca. 1674-1707)
23. Trumpet Tune 00:56
24. Slow Air 01:00
25. Trumpet Tune da capo 01:03

John Shore (ca. 1662-1753)
26. Shore’s Trumpet 01:08
27. Marlborough’s Funeral March 01:24
28. Shore’s Trumpet da capo 01:14

Jeremiah Clarke (ca. 1674-1707)
29. The Serenade & Minuett 02:00
30. Rondo 00:59
31. Gigue 01:39

Nicola Mattheis (1650-1714)
32. Aria 02:08

Jeremiah Clarke (ca. 1674-1707)
33. Round-O: The Prince of Denmark's March 01:57

foobar2000 1.3.7 / Замер динамического диапазона (DR) 1.1.1
Дата отчёта: 2016-12-08 21:40:41

––––––––––––––––––––––––––––––––––––––––
Анализ: Barocktrompeten Ensemble Berlin, Johann Plietzsch / Mr. Handel's Trumpeters: Musik der englischen Hof-Trompeter von Purcell bis Händel
––––––––––––––––––––––––––––––––––––––––

DR Пики RMS Продолжительность трека
––––––––––––––––––––––––––––––––––––––––
DR12 -0.84 дБ -17.25 дБ 2:30 01-Who can from joy refrain?, Z. 342 - I. Overture
DR9 -11.56 дБ -26.25 дБ 1:13 02-Who can from joy refrain?, Z. 342 - II. Larghetto
DR11 -0.84 дБ -16.32 дБ 1:22 03-Who can from joy refrain?, Z. 342 - III. March
DR8 -14.95 дБ -25.61 дБ 0:49 04-Who can from joy refrain?, Z. 342 - IV. Adagio
DR14 -0.84 дБ -20.08 дБ 3:52 05-Who can from joy refrain?, Z. 342 - V. Chaconne
DR8 -17.62 дБ -28.41 дБ 2:29 06-Crown the altar, deck the shrine, Z. 321/6
DR11 -1.31 дБ -15.86 дБ 2:05 07-Suite of Watermusic,HWV 348-350 - I. Overture
DR11 -2.00 дБ -17.85 дБ 3:14 08-Suite of Watermusic,HWV 348-350 - II. Hornpipe
DR9 -14.22 дБ -25.76 дБ 1:44 09-Suite of Watermusic,HWV 348-350 - III. Air
DR10 -1.79 дБ -16.45 дБ 1:41 10-Suite of Watermusic,HWV 348-350 - IV. Lentement
DR11 -2.56 дБ -16.97 дБ 1:03 11-Suite of Watermusic,HWV 348-350 - V. Minuet
DR10 -20.39 дБ -32.94 дБ 1:35 12-Suite of Watermusic,HWV 348-350 - VI. Air
DR12 -1.06 дБ -17.26 дБ 1:08 13-Suite of Watermusic,HWV 348-350 - VII. Bourée
DR13 -18.36 дБ -36.15 дБ 3:08 14-A Fancy (für Laute)
DR11 -1.02 дБ -16.63 дБ 0:56 15-Royal Trumpet Suite - I. Allegro
DR11 -10.23 дБ -24.98 дБ 1:45 16-Royal Trumpet Suite - II. Roundo
DR11 -2.88 дБ -18.77 дБ 1:09 17-Royal Trumpet Suite - III. Menuett
DR11 -2.92 дБ -17.54 дБ 1:40 18-Royal Trumpet Suite - IV. Fugue
DR7 -14.98 дБ -25.90 дБ 0:46 19-Royal Trumpet Suite - V. Adagio
DR12 -2.29 дБ -20.18 дБ 3:30 20-Royal Trumpet Suite - VI. Chaconne
DR12 -2.76 дБ -19.42 дБ 1:24 21-Royal Trumpet Suite - VII. Aria
DR8 -15.56 дБ -26.76 дБ 3:30 22-Fuge in F aus Suite Nr. 2, HWV 427 (für Orgel)
DR10 -0.94 дБ -15.90 дБ 0:56 23-Trumpet Tune
DR8 -14.75 дБ -25.84 дБ 1:01 24-Slow Air
DR10 -1.35 дБ -16.19 дБ 1:03 25-Trumpet Tune da capo
DR11 -2.34 дБ -18.34 дБ 1:09 26-Shore’s Trumpet
DR15 -0.84 дБ -19.83 дБ 1:24 27-Marlborough’s Funeral March
DR12 -2.34 дБ -18.71 дБ 1:14 28-Shore’s Trumpet da capo
DR11 -2.19 дБ -19.22 дБ 2:01 29-The Serenade & Minuett
DR8 -15.77 дБ -26.64 дБ 1:00 30-Rondo
DR12 -1.17 дБ -16.20 дБ 1:40 31-Gigue
DR10 -9.44 дБ -24.75 дБ 2:09 32-Aria
DR11 -0.84 дБ -16.66 дБ 1:58 33-Round-O: The Prince of Denmark's March
––––––––––––––––––––––––––––––––––––––––

Количество треков: 33
Реальные значения DR: DR11

Частота: 88200 Гц
Каналов: 2
Разрядность: 24
Битрейт: 2452 кбит/с
Кодек: FLAC
================================================================================


Thanks to the Original customer.
hitfile