ZZ Top - Live: Greatest Hits From Around The World (2016) [TR24][OF]


ZZ Top - Live: Greatest Hits From Around The World
Blues Rock | FLAC (tracks) 24-bit/48 kHz | 64:55 min | 884 MB | Digital booklet
Label: Suretone Records | Tracks: 15 | Rls.date: 2016

With seven Billboard Top 10 albums to their name, multiple Platinum album certifications all over the world and a place in the Rock and Roll Hall of Fame, the legendary ZZ Top are officially the world’s longest running rock band with its original line-up intact. Now after over 45 years together, the Texan trio are finally set to release their first official live album ‘Greatest Hits Live’ on Suretone Records. Recorded over the course of several tours in cities all around the world, ‘Greatest Hits Live’ picks the greatest moments and biggest hits from ZZ Top’s illustrious back catalogue captured with the phenomenal energy of their renowned live performances.‘Greatest Hits Live’ covers everything from their breakthrough hit ‘La Grange’ plus three snappy blues-rock classics from the 1973 album ‘Tres Hombres’, through to their huge crossover hits – ‘Gimme All Your Lovin’’, ‘Sharp Dressed Man’, ‘Legs’ – and then to the present day with their recent collaboration with Jeff Beck on the Tennessee Ernie Ford / Merle Travis standard ‘Sixteen Tons’.

TRACKLIST
01. Got Me Under Pressure (Live From New York) (4:18)
02. Beer Drinkers & Hell Raisers (Live From Las Vegas) (3:36)
03. Cheap Sunglasses (Live From Paris) (4:03)
04. Waitin' For The Bus (Live From Nashville) (3:00)
05. Jesus Just Left Chicago (Live From Nashville) (4:37)
06. Legs (Live From Sao Paolo) (5:10)
07. Sharp Dressed Man (Live From Los Angeles) (4:39)
08. Rough Boy (Feat. Jeff Beck) (Live From London) (5:29)
09. Pincushion (Live From Berlin) (4:24)
10. La Grange (Live From Dallas) (5:45)
11. I'm Bad, I'm Nationwide (Live From Vancouver) (4:43)
12. Tube Snake Boogie (Live From Rome) (3:26)
13. Gimme All Your Lovin (Live From Houston) (4:45)
14. Tush (Live From Chicago) (3:40)
15. Sixteen Tons (Feat. Jeff Beck) (Live From London) (3:17)

foobar2000 1.3.7 / Замер динамического диапазона (DR) 1.1.1
Дата отчёта: 2016-12-10 00:42:04

––––––––––––––––––––––––––––––––––––––––
Анализ: ZZ Top / Live - Greatest Hits From Around The World
––––––––––––––––––––––––––––––––––––––––

DR Пики RMS Продолжительность трека
––––––––––––––––––––––––––––––––––––––––
DR6 -1.43 дБ -7.78 дБ 4:18 01-Got Me Under Pressure
DR6 0.00 дБ -7.69 дБ 3:37 02-Beer Drinkers & Hell Raisers
DR6 0.00 дБ -7.58 дБ 4:03 03-Cheap Sunglasses
DR4 0.00 дБ -5.84 дБ 3:00 04-Waitin For The Bus
DR5 0.00 дБ -6.24 дБ 4:38 05-Jesus Just Left Chicago (Live from Nashville)
DR6 0.00 дБ -7.02 дБ 5:12 06-Legs
DR6 0.00 дБ -6.80 дБ 4:40 07-Sharp Dressed Man
DR5 0.00 дБ -6.61 дБ 5:30 08-Rough Boy (feat. Jeff Beck)
DR6 0.00 дБ -7.24 дБ 4:25 09-Pincushion
DR5 -0.01 дБ -6.71 дБ 5:46 10-La Grange
DR6 0.00 дБ -6.72 дБ 4:43 11-I'm Bad, I'm Nationwide
DR6 0.00 дБ -6.96 дБ 3:27 12-Tube Snake Boogie
DR8 -0.59 дБ -10.06 дБ 4:46 13-Gimme All Your Lovin
DR7 0.00 дБ -8.62 дБ 3:40 14-Tush
DR7 0.00 дБ -8.24 дБ 3:18 15-Sixteen Tons (feat. Jeff Beck)
––––––––––––––––––––––––––––––––––––––––

Количество треков: 15
Реальные значения DR: DR6

Частота: 48000 Гц
Каналов: 2
Разрядность: 24
Битрейт: 1836 кбит/с
Кодек: FLAC
================================================================================


Thanks to the Original customer.