Francois Lazarevitch & Sofi Jeannin - Noel Baroque (2016) [TR24][OF]


Francois Lazarevitch & Sofi Jeannin - Noel Baroque
Classical | FLAC (tracks) 24-bit/48 kHz | 60:12 min | 616 MB | Digital booklet
Label: Alpha Classics | Tracks: 19 | Rls.date: 2016

Since the dawn of Christianity, Christmas has been celebrated with festive singing. In the Baroque era numerous composers such as Charpentier, Delalande, Balbastre, Dandrieu and Daquin created masterpieces out of these simple tunes. When Sofi Jeannin told me of her wish to get her Maîtrise choir to sing Christmas music, I was delighted. For a long time I had been gathering French sources of the 17th and 18th centuries with the intention of working on baroque carol arrangements with Les Musiciens de Saint-Julien. I wanted to create something quite different from what had been done before, by treating this repertoire with proper respect: being faithful to the old sources, yet re-working the musical material to make our own personal version. The different languages, regional dialects and accents illustrate the extraordinary diversity and cultural richness of France as well as of New France at that historical period.

TRACKLIST
01. Michel Corrette - Noel Symphony No. 6, Tous les bourgeois de châtre
02. Jean de Brébeuf - Jesous ahatonhia
03. André Raison - Noël Poitevin "Au saint Nau"
04. Louis-Claude Daquin - Nouveau livre de Noël, Op. 2: No. 2, Noël en Dialogue
05. Michel Corrette - Quand Dieu naquit à Noël
06. Traditional - C'est une fille muette
07-12. Arcangelo Corelli - Concerto Grosso in G Minor, Op. 6 No. 8
13. Marc-Antoine Charpentier - 3 Noëls, H. 531: A la venue de Noel
14. Pierre Guédron - Si cést pour oster la vie
15. Nouveau livre de Noël, Op. 2: No. 11, Noël en Recit en Taille: Une jeune Pucelle
16. Jean-François Dandrieu - Noël bressan, 'Nos alins raconté l'histoaire'
17. Michel Corrette - Nouveau livre de Noëls pour le clavecin, Suite No. 3: Noël suisse, 'Il est un petit ange'
18. Michel-Richard de Lalande - 23 Symphonies des Noëls, S. 130 (excerpt)
19. Marc-Antoine Charpentier - Noël sur les instruments, H. 534: Joseph est bien marié

foobar2000 1.3.7 / Замер динамического диапазона (DR) 1.1.1
Дата отчёта: 2016-12-11 21:19:02

––––––––––––––––––––––––––––––––––––––––
Анализ: Les Musiciens de Saint-Julien, Performer - François Lazarevitch, Performer - Maîtrise de Radio France, Performer - Sofi Jeannin, Performer - André Raison, Composer / Les Musiciens de Saint-Julien, François Lazarevitch, Maîtrise de Radio France, Sofi Jeannin : Noël baroque (1)
Les Musiciens de Saint-Julien, Performer - François Lazarevitch, Performer - Maîtrise de Radio France, Performer - Sofi Jeannin, Performer - Anonyme, Composer / Les Musiciens de Saint-Julien, François Lazarevitch, Maîtrise de Radio France, Sofi Jeannin : Noël baroque (2)
Les Musiciens de Saint-Julien, Performer - François Lazarevitch, Performer - Maîtrise de Radio France, Performer - Sofi Jeannin, Performer - Arcangelo Corelli, Composer / Les Musiciens de Saint-Julien, François Lazarevitch, Maîtrise de Radio France, Sofi Jeannin : Noël baroque (3-8)
Les Musiciens de Saint-Julien, Performer - François Lazarevitch, Performer - Maîtrise de Radio France, Performer - Sofi Jeannin, Performer - Jean de Brebeuf, Composer / Les Musiciens de Saint-Julien, François Lazarevitch, Maîtrise de Radio France, Sofi Jeannin : Noël baroque (9)
Les Musiciens de Saint-Julien, Performer - François Lazarevitch, Performer - Maîtrise de Radio France, Performer - Sofi Jeannin, Performer - Jean-François Dandrieu, Composer / Les Musiciens de Saint-Julien, François Lazarevitch, Maîtrise de Radio France, Sofi Jeannin : Noël baroque (10)
Les Musiciens de Saint-Julien, Performer - François Lazarevitch, Performer - Maîtrise de Radio France, Performer - Sofi Jeannin, Performer - Louis-Claude Daquin, Composer / Les Musiciens de Saint-Julien, François Lazarevitch, Maîtrise de Radio France, Sofi Jeannin : Noël baroque (11-12)
Les Musiciens de Saint-Julien, Performer - François Lazarevitch, Performer - Maîtrise de Radio France, Performer - Sofi Jeannin, Performer - Marc-Antoine Charpentier, Composer - Charles-Hubert Gervais, Composer / Les Musiciens de Saint-Julien, François Lazarevitch, Maîtrise de Radio France, Sofi Jeannin : Noël baroque (13-14)
Les Musiciens de Saint-Julien, Performer - François Lazarevitch, Performer - Maîtrise de Radio France, Performer - Sofi Jeannin, Performer - Michel Corrette, Composer / Les Musiciens de Saint-Julien, François Lazarevitch, Maîtrise de Radio France, Sofi Jeannin : Noël baroque (15-17)
Les Musiciens de Saint-Julien, Performer - François Lazarevitch, Performer - Maîtrise de Radio France, Performer - Sofi Jeannin, Performer - Michel-Richard Delalande, Composer / Les Musiciens de Saint-Julien, François Lazarevitch, Maîtrise de Radio France, Sofi Jeannin : Noël baroque (18)
Les Musiciens de Saint-Julien, Performer - François Lazarevitch, Performer - Maîtrise de Radio France, Performer - Sofi Jeannin, Performer - Pierre Guédron, Composer / Les Musiciens de Saint-Julien, François Lazarevitch, Maîtrise de Radio France, Sofi Jeannin : Noël baroque (19)
––––––––––––––––––––––––––––––––––––––––

DR Пики RMS Продолжительность трека
––––––––––––––––––––––––––––––––––––––––
DR14 -1.00 дБ -20.07 дБ 3:10 3-Noël poitevin "Au saint Nau"
DR12 -8.79 дБ -25.29 дБ 4:01 6-C’est une fille muette
DR10 -7.23 дБ -22.14 дБ 1:13 7-Concerto Grosso No. 8 in G Minor, Op. 6 "Fatto per la Notte di Natale":I. Vivace - Grave
DR11 -10.92 дБ -24.48 дБ 2:19 8-Concerto Grosso No. 8 in G Minor, Op. 6 "Fatto per la Notte di Natale":II. Allegro
DR12 -7.64 дБ -23.61 дБ 2:42 9-Concerto Grosso No. 8 in G Minor, Op. 6 "Fatto per la Notte di Natale":III. Adagio - Allegro - Adagio
DR11 -10.94 дБ -24.22 дБ 0:57 10-Concerto Grosso No. 8 in G Minor, Op. 6 "Fatto per la Notte di Natale":IV. Vivace
DR12 -11.20 дБ -25.71 дБ 2:06 11-Concerto Grosso No. 8 in G Minor, Op. 6 "Fatto per la Notte di Natale":V. Allegro
DR11 -9.81 дБ -24.40 дБ 3:24 12-Concerto Grosso No. 8 in G Minor, Op. 6 "Fatto per la Notte di Natale":VI. Largo. Pastorale ad libitum
DR13 -4.88 дБ -23.49 дБ 4:23 2-Iesous Ahatonnia
DR14 -4.43 дБ -23.01 дБ 4:48 16-Noël bressan "Nos alins raconté l’histoaire" sur l’air des pèlerins de Saint-Jacques
DR14 -3.91 дБ -21.89 дБ 5:57 4-Or nous dites Marie
DR14 -3.05 дБ -22.48 дБ 5:22 15-Une jeune pucelle
DR12 -4.47 дБ -20.93 дБ 2:44 13-A la venue de Noël
DR13 -2.92 дБ -20.74 дБ 3:49 19-Joseph est bien marié
DR13 -3.45 дБ -21.16 дБ 2:22 1-Les bourgeois de Châtres
DR14 -3.54 дБ -21.93 дБ 4:04 5-Quand Dieu naquit à Noël
DR12 -2.98 дБ -19.03 дБ 3:20 17-Noël suisse "Il est un petit ange"
DR11 -6.08 дБ -20.18 дБ 1:37 18-Simphonie
DR13 -3.47 дБ -20.39 дБ 2:02 14-Si c’est pour oster la vie
––––––––––––––––––––––––––––––––––––––––

Количество треков: 19
Реальные значения DR: DR12

Частота: 48000 Гц
Каналов: 2
Разрядность: 24
Битрейт: 1676 кбит/с
Кодек: FLAC
================================================================================


Thanks to the Original customer.