Mariss Jansons & Wiener Philharmoniker - Neujahrskonzert 2016 / New Year's Concert 2016 (2016)


Mariss Jansons & Wiener Philharmoniker - Neujahrskonzert 2016 / New Year's Concert 2016
Classical | FLAC (tracks) 24-bit/96 kHz | 112:29 min | 2.15 GB | Digital booklet
Label: Sony Classical | Tracks: 22 | Rls.date: 2016

As a brand name, the Vienna New Year’s Concert can trace back its origins to 31 December 1939. In other words, the concert initially took place on the last day of the year. By 1941, however, it was being held on 1 January, when the Vienna Philharmonic established a tradition that continues to flourish to this day.

The list of names of leading conductors who have led the Vienna Philharmonic’s New Year’s Concerts reads like a veritable who’s who of great maestros: including Herbert von Karajan, Lorin Maazel, Claudio Abbado, Carlos Kleiber, Zubin Mehta, Riccardo Muti, Nikolaus Harnoncourt, Seiji Ozawa, Mariss Jansons, and Franz Welser-Möst.

It is not least thanks to this illustrious succession of great conductors that the Vienna New Year’s Concert remains unique, ushering in the New Year in a way that has often been imitated but never equalled. Its universal popularity is undoubtedly due to the direct – or deferred – live broadcast from the flower-filled Golden Hall of the Vienna Musikverein. The first broadcast went out on Eurovision in 1959, the first colour relay in 1967. Now the concert is shown in countries throughout almost the entire world.

It continues to be works by members of the Strauss family – Johann Strauss Father and Son as well as Eduard and Josef Strauss – that are central to this media event. Old favourites from their output are heard alongside others that have never been recorded or are only rarely heard; all of them programmed around two fixed points in the concert: the Blue Danube Waltz and the Radetzky March.

Mariss Jansons ranks among the outstanding podium personalities of our time. He has been the Chief Conductor of the Chor und Symphonieorchester des Bayerischen Rundfunks since 2003. After several exceptionally successful seasons, his contract was prolonged until 2018. Until recently he was also the chief conductor of the Koninklijk Concertgebouworkest in Amsterdam (2004-2015) and held both prestigious positions of a chief conductor at both orchestras. Both ensembles made the top 10 in a 2008 Gramophone list of the world's top 20 orchestras

TRACKLIST
1 UNO - Marsch 03:28
2 Schatz-Walzer, Op. 418 08:06
3 Violetta, Polka française, Op. 404 04:29
4 Vergnügungszug, Polka schnell, Op. 281 03:01
5 Weaner Mad'ln, Walzer, Op. 388 10:27
6 Mit Extrapost, Polka schnell, Op. 259 02:20
7 Eine Nacht in Venedig: Ouvertüre 08:09
8 Außer Rand und Band, Polka schnell, Op. 168 02:08
9 Sphärenklänge, Walzer, Op. 235 10:04
10 Sängerslust, Polka française, Op. 328 03:47
11 Auf Ferienreisen, Polka schnell, Op. 133 02:43
12 Fürstin Ninetta: Entr'acte Akt III 03:40
13 España, Walzer, Op. 236 05:49
14 Ballszene 05:05
15 Seufzer-Galopp, Op. 9 02:11
16 Die Libelle, Polka Mazur, Op. 204 05:28
17 Kaiser-Walzer, Op. 437 11:32
18 Auf der Jagd, Polka schnell, Op. 373 02:31
19 Im Sturmschritt, Polka schnell, Op. 348 02:30
20 Neujahrsgruß / New Year's Address / Allocution du Nouvel An 00:43
21 An der schönen blauen Donau, Op. 314 10:31
22 Radetzky-Marsch, Op. 228 03:47

foobar2000 1.3.7 / Замер динамического диапазона (DR) 1.1.1
Дата отчёта: 2016-12-12 12:39:31

––––––––––––––––––––––––––––––––––––––––
Анализ: Wiener Philharmoniker, Ensemble
Mariss Jansons, Conductor
Carl Michael Ziehrer, Composer / Mariss Jansons - Wiener Philharmoniker : New Year's Concert 2016 / Neujahrskonzert 2016 (1)
Wiener Philharmoniker, Ensemble
Mariss Jansons, Conductor
Eduard Strauss, Composer / Mariss Jansons - Wiener Philharmoniker : New Year's Concert 2016 / Neujahrskonzert 2016 (2-3)
Wiener Philharmoniker, Ensemble
Mariss Jansons, Conductor
Èmile Waldteufel, Composer / Mariss Jansons - Wiener Philharmoniker : New Year's Concert 2016 / Neujahrskonzert 2016 (4)
Wiener Philharmoniker, Ensemble
Mariss Jansons, Conductor
Johann Strauss, Jr., Composer
Gerald Wirth, Arranger
Josef Weyl, Lyricist / Mariss Jansons - Wiener Philharmoniker : New Year's Concert 2016 / Neujahrskonzert 2016 (5)
Wiener Philharmoniker, Ensemble
Mariss Jansons, Conductor
Johann Strauss, Jr., Composer / Mariss Jansons - Wiener Philharmoniker : New Year's Concert 2016 / Neujahrskonzert 2016 (6-12)
Wiener Philharmoniker, Ensemble
Mariss Jansons, Conductor
Johann Strauss, Sr., Composer / Mariss Jansons - Wiener Philharmoniker : New Year's Concert 2016 / Neujahrskonzert 2016 (13)
Wiener Philharmoniker, Ensemble
Mariss Jansons, Conductor
Josef Strauss, Composer / Mariss Jansons - Wiener Philharmoniker : New Year's Concert 2016 / Neujahrskonzert 2016 (14-16)
Wiener Philharmoniker, Ensemble
Mariss Jansons, Conductor
Joseph Hellmesberger, Composer / Mariss Jansons - Wiener Philharmoniker : New Year's Concert 2016 / Neujahrskonzert 2016 (17)
Wiener Philharmoniker, Ensemble
Mariss Jansons, Conductor
Robert Stolz, Composer / Mariss Jansons - Wiener Philharmoniker : New Year's Concert 2016 / Neujahrskonzert 2016 (18)
Wiener Philharmoniker, Ensemble
Mariss Jansons, Conductor / Mariss Jansons - Wiener Philharmoniker : New Year's Concert 2016 / Neujahrskonzert 2016 (19-22)
––––––––––––––––––––––––––––––––––––––––

DR Пики RMS Продолжительность трека
––––––––––––––––––––––––––––––––––––––––
DR15 -0.51 дБ -19.86 дБ 10:28 5-Weaner Mad'ln, Walzer, Op. 388
DR12 -0.51 дБ -16.43 дБ 2:20 6-Mit Extrapost, Polka schnell, Op. 259
DR13 -0.51 дБ -17.64 дБ 2:09 8-Außer Rand und Band, Polka schnell, Op. 168
DR13 -0.51 дБ -16.63 дБ 5:50 13-España, Walzer, Op. 236
DR13 -0.51 дБ -17.37 дБ 3:47 10-Sängerslust, Polka française, Op. 328
DR14 -0.51 дБ -18.67 дБ 8:06 2-Schatz-Walzer, Op. 418
DR15 -0.51 дБ -20.37 дБ 4:29 3-Violetta, Polka française, Op. 404
DR13 -0.51 дБ -17.03 дБ 3:01 4-Vergnügungszug, Polka schnell, Op. 281
DR13 -0.51 дБ -18.22 дБ 8:09 7-Eine Nacht in Venedig: Ouvertüre
DR15 -3.18 дБ -24.37 дБ 3:40 12-Fürstin Ninetta: Entr'acte Akt III
DR13 -0.51 дБ -18.67 дБ 11:33 17-Kaiser-Walzer, Op. 437
DR13 -0.51 дБ -16.88 дБ 2:31 18-Auf der Jagd, Polka schnell, Op. 373
DR13 -0.51 дБ -17.29 дБ 2:12 15-Seufzer-Galopp, Op. 9
DR15 -0.51 дБ -20.03 дБ 10:04 9-Sphärenklänge, Walzer, Op. 235
DR13 -0.51 дБ -17.21 дБ 2:44 11-Auf Ferienreisen, Polka schnell, Op. 133
DR14 -2.79 дБ -23.44 дБ 5:29 16-Die Libelle, Polka Mazur, Op. 204
DR15 -1.94 дБ -23.67 дБ 5:06 14-Ballszene
DR10 -0.51 дБ -12.65 дБ 3:28 1-UNO - Marsch
DR13 -0.51 дБ -16.32 дБ 2:31 19-Im Sturmschritt, Polka schnell, Op. 348
DR11 -3.42 дБ -20.11 дБ 0:44 20-Neujahrsgruß / New Year's Address / Allocution du Nouvel An
DR14 -0.51 дБ -19.64 дБ 10:31 21-An der schönen blauen Donau, Op. 314
DR11 -0.51 дБ -15.16 дБ 3:48 22-Radetzky-Marsch, Op. 228
––––––––––––––––––––––––––––––––––––––––

Количество треков: 22
Реальные значения DR: DR13

Частота: 96000 Гц
Каналов: 2
Разрядность: 24
Битрейт: 2954 кбит/с
Кодек: FLAC
================================================================================


Thanks to the Original customer.
hitfile