VA - The 25th Anniversary Rock & Roll Hall Of Fame Concerts (2010) [TR24][OF]


VA - The 25th Anniversary Rock & Roll Hall Of Fame Concerts
Rock | FLAC (tracks) 24-bit/48 kHz | 240:08 min | 3.00 GB | Digital booklet
Label: Time-Life Music | Tracks: 54 | Rls.date: 2010

For a quarter century, the Rock and Roll Hall of Fame has honored rock’s most influential figures. Last October, they celebrated their 25th anniversary with two star-studded, once-in-a-lifetime concerts. The 25th Anniversary Rock & Roll Hall of Fame Concerts documents these unprecedented events and features incredible collaborations. The roster featured a who’s who of rock including artists performing together in unique combinations that will most likely never be witnessed again.

Highlights from the concert include:
- Mick Jagger and Fergie in a blistering version of the Stones' classic "Gimme Shelter," with U2 as the backing band.
- Bruce Springsteen and Billy Joel duet on a rollicking rendition of "Born to Run."
- Sting joins Jeff Beck for the Curtis Mayfield classic, "People Get Ready."
- Paul Simon, David Crosby and Graham Nash join together for a spine-tingling "Here Comes the Sun."
- Ozzy Osbourne sings with Metallica on the Black Sabbath classics "Iron Man" and "Paranoid."
- John Fogerty and Bruce Springsteen share vocals on Roy Orbison's "Pretty Woman."
- Plus Stevie Wonder, Simon & Garfunkel, Dion, Bonnie Raitt, James Taylor, John Legend, Smokey Robinson, B.B. King, Little Anthony and the Imperials, Jackson Browne and more.

TRACKLIST
01. Crosby, Stills & Nash - Woodstock
02. Crosby, Stills & Nash - Almost Cut My Hair
03. Crosby, Stills & Nash - Love Has No Pride (with Bonnie Raitt)
04. Crosby, Stills & Nash - The Pretender (with Jackson Browne)
05. Crosby, Stills & Nash - Mexico (with James Taylor) [Bonus Track]
06. Crosby, Stills & Nash - Love the One You're With (with James Taylor)
07. Paul Simon - Me and Julio Down by the Schoolyard
08. Paul Simon - You Can Call Me Al
09. Paul Simon - The Wanderer (with Dion DiMucci)
10. Paul Simon - Here Comes the Sun (with David Crosby and Graham Nash)
11. Little Anthony and the Imperials - Two People in the World
12. Simon & Garfunkel - The Sounds of Silence
13. Simon & Garfunkel - Mrs. Robinson/Not Fade Away
14. Simon & Garfunkel - The Boxer
15. Simon & Garfunkel - Bridge Over Troubled Water
16. Stevie Wonder - For Once in My Life
17. Stevie Wonder - Signed, Sealed, Delivered I'm Yours
18. Stevie Wonder - The Tracks of My Tears (with Smokey Robinson)
19. Stevie Wonder - Mercy Mercy Me (The Ecology) [with John Legend]
20. Stevie Wonder - The Way You Make Me Feel (with John Legend)
21. Stevie Wonder - The Thrill Is Gone (with B.B. King)
22. Stevie Wonder - Higher Ground/Roxanne (with Sting)
23. Stevie Wonder - Superstition (with Jeff Beck)
24. Bruce Springsteen & the E Street Band - The Ghost of Tom Joad (with Tom Morello)
25. Bruce Springsteen & the E Street Band - Fortunate Son (with John Fogerty)
26. Bruce Springsteen & the E Street Band - Oh, Pretty Woman (with John Fogerty)
27. Bruce Springsteen & the E Street Band - Jungleland
28. Bruce Springsteen & the E Street Band - A Fine Fine Boy (with Darlene Love)
29. Bruce Springsteen & the E Street Band - London Calling (with Tom Morello)
30. Bruce Springsteen & the E Street Band - New York State of Mind (with Billy Joel)
31. Bruce Springsteen & the E Street Band - Born to Run (with Billy Joel)
32. Bruce Springsteen & the E Street Band - [Your Love Keeps Lifting Me] Higher and Higher (A Tribute To Jackie Wilson) (with Darlene Love, John Fogerty, Sam Moore, Billy Joel and Tom Morello)
33. Jerry Lee Lewis - Great Balls of Fire
34. Jeff Beck - People Get Ready (with Sting)
35. Jeff Beck - Let Me Love You Baby (with Buddy Guy)
36. Jeff Beck - Rice Pudding
37. Jeff Beck - Foxey Lady (with Billy Gibbons)
38. Jeff Beck - A Day in the Life
39. Metallica - For Whom the Bell Tolls
40. Metallica - Turn the Page
41. Metallica - Sweet Jane (with Lou Reed)
42. Metallica - Iron Man (with Ozzy Osbourne)
43. Metallica - [Paranoid (with Ozzy Osbourne)
44. Metallica - All Day and All of the Night (with Ray Davies)
45. Metallica - Enter Sandman
46. U2 - Vertigo
47. U2 - Magnificent
48. U2 - Because The Night (With Bruce Springsteen, Patti Smith and Roy Bittan)
49. U2 - I Still Haven't Found What I'm Looking For (With Bruce Springsteen)
50. U2 - Mysterious Ways
51. U2 - Where Is the Love/One (With the Black Eyed Peas)
52. U2 - Gimme Shelter (With Mick Jagger, Fergie and will.i.am)
53. U2 - Stuck in a Moment You Can't Get Out Of (With Mick Jagger)
54. U2 - Beautiful Day

foobar2000 1.3.7 / Замер динамического диапазона (DR) 1.1.1
Дата отчёта: 2016-12-16 17:39:48

––––––––––––––––––––––––––––––––––––––––
Анализ: Bruce Springsteen & the E Street Band / The 25th Anniversary Rock & Roll Hall Of Fame Concerts (1-9)
Crosby, Stills & Nash / The 25th Anniversary Rock & Roll Hall Of Fame Concerts (10-15)
Jeff Beck / The 25th Anniversary Rock & Roll Hall Of Fame Concerts (16-20)
Jerry Lee Lewis / The 25th Anniversary Rock & Roll Hall Of Fame Concerts (21)
Little Anthony and the Imperials / The 25th Anniversary Rock & Roll Hall Of Fame Concerts (22)
Metallica / The 25th Anniversary Rock & Roll Hall Of Fame Concerts (23-29)
Paul Simon / The 25th Anniversary Rock & Roll Hall Of Fame Concerts (30-33)
Simon & Garfunkel / The 25th Anniversary Rock & Roll Hall Of Fame Concerts (34-37)
Stevie Wonder / The 25th Anniversary Rock & Roll Hall Of Fame Concerts (38-45)
U2 / The 25th Anniversary Rock & Roll Hall Of Fame Concerts (46-54)
––––––––––––––––––––––––––––––––––––––––

DR Пики RMS Продолжительность трека
––––––––––––––––––––––––––––––––––––––––
DR8 0.00 дБ -9.77 дБ 8:02 24-The Ghost of Tom Joad (with Tom Morello)
DR8 -0.10 дБ -9.48 дБ 3:13 25-Fortunate Son (with John Fogerty)
DR8 -0.10 дБ -9.52 дБ 3:15 26-Oh, Pretty Woman (with John Fogerty)
DR9 -0.10 дБ -12.80 дБ 11:03 27-Jungleland
DR7 -0.10 дБ -8.70 дБ 3:02 28-A Fine Fine Boy (with Darlene Love)
DR8 -0.02 дБ -9.25 дБ 4:06 29-London Calling (with Tom Morello)
DR9 -0.10 дБ -11.48 дБ 6:53 30-New York State of Mind (with Billy Joel)
DR8 -0.10 дБ -8.75 дБ 5:21 31-Born to Run (with Billy Joel)
DR8 -0.10 дБ -9.84 дБ 4:21 32-[Your Love Keeps Lifting Me] Higher and Higher (A Tribute To Jackie Wilson) (with Darlene Love, John Fogerty, Sam Moore, Billy Joel and Tom Morello)
DR9 -0.10 дБ -10.14 дБ 4:25 01-Woodstock
DR8 0.00 дБ -10.77 дБ 4:18 02-Almost Cut My Hair
DR12 -0.40 дБ -17.19 дБ 5:08 03-Love Has No Pride (with Bonnie Raitt)
DR9 -0.10 дБ -11.03 дБ 5:55 04-The Pretender (with Jackson Browne)
DR9 -0.10 дБ -10.73 дБ 3:09 05-Mexico (with James Taylor) [Bonus Track]
DR10 0.00 дБ -11.27 дБ 3:55 06-Love the One You're With (with James Taylor)
DR9 -0.10 дБ -11.78 дБ 4:34 34-People Get Ready (with Sting)
DR9 -0.10 дБ -10.21 дБ 3:37 35-Let Me Love You Baby (with Buddy Guy)
DR9 0.00 дБ -10.50 дБ 0:29 36-Rice Pudding
DR9 -0.10 дБ -10.43 дБ 4:45 37-Foxey Lady (with Billy Gibbons)
DR9 -0.01 дБ -11.60 дБ 4:46 38-A Day in the Life
DR12 -0.10 дБ -14.42 дБ 1:55 33-Great Balls of Fire
DR9 -0.11 дБ -11.99 дБ 3:09 11-Two People in the World
DR8 -0.10 дБ -9.39 дБ 4:27 39-For Whom the Bell Tolls
DR8 -0.10 дБ -9.62 дБ 5:17 40-Turn the Page
DR10 0.00 дБ -10.75 дБ 4:57 41-Sweet Jane (with Lou Reed)
DR8 -0.10 дБ -9.21 дБ 3:07 42-Iron Man (with Ozzy Osbourne)
DR7 -0.10 дБ -8.20 дБ 2:49 43-Paranoid (with Ozzy Osbourne)
DR7 -0.10 дБ -8.83 дБ 2:40 44-All Day and All of the Night (with Ray Davies)
DR7 -0.01 дБ -9.50 дБ 6:12 45-Enter Sandman
DR9 -0.10 дБ -10.19 дБ 2:50 07-Me and Julio Down by the Schoolyard
DR9 -0.10 дБ -10.57 дБ 4:47 08-You Can Call Me Al
DR8 -0.04 дБ -8.99 дБ 3:18 09-The Wanderer (with Dion DiMucci)
DR13 -0.23 дБ -16.27 дБ 3:23 10-Here Comes the Sun (with David Crosby and Graham Nash)
DR9 -0.13 дБ -13.05 дБ 4:33 12-The Sounds of Silence
DR9 -0.10 дБ -11.46 дБ 5:44 13-Mrs. Robinson/Not Fade Away
DR9 -0.10 дБ -11.53 дБ 4:42 14-The Boxer
DR9 -0.10 дБ -13.65 дБ 5:17 15-Bridge Over Troubled Water
DR9 -0.10 дБ -10.87 дБ 3:02 16-For Once in My Life
DR8 -0.10 дБ -10.24 дБ 2:38 17-Signed, Sealed, Delivered I'm Yours
DR9 -0.10 дБ -12.07 дБ 3:57 18-The Tracks of My Tears (with Smokey Robinson)
DR8 -0.10 дБ -10.63 дБ 3:19 19-Mercy Mercy Me (The Ecology) [with John Legend]
DR12 0.00 дБ -13.01 дБ 3:37 20-The Way You Make Me Feel (with John Legend)
DR10 0.00 дБ -11.53 дБ 5:05 21-The Thrill Is Gone (with B.B. King)
DR9 -0.10 дБ -10.27 дБ 7:21 22-Higher Ground/Roxanne (with Sting)
DR9 -0.10 дБ -10.43 дБ 4:25 23-Superstition (with Jeff Beck)
DR9 -0.10 дБ -10.07 дБ 3:56 46-Vertigo
DR9 -0.10 дБ -10.84 дБ 6:03 47-Magnificent
DR8 -0.10 дБ -9.95 дБ 4:20 48-Because The Night (With Bruce Springsteen, Patti Smith and Roy Bittan)
DR9 -0.10 дБ -11.82 дБ 5:42 49-I Still Haven't Found What I'm Looking For (With Bruce Springsteen)
DR9 -0.10 дБ -10.29 дБ 2:17 50-Mysterious Ways
DR9 -0.10 дБ -10.47 дБ 6:21 51-Where Is the Love/One (With the Black Eyed Peas)
DR8 -0.10 дБ -9.43 дБ 5:01 52-Gimme Shelter (With Mick Jagger, Fergie and will.i.am)
DR9 -0.10 дБ -11.06 дБ 4:35 53-Stuck in a Moment You Can't Get Out Of (With Mick Jagger)
DR7 -0.10 дБ -9.95 дБ 5:26 54-Beautiful Day
––––––––––––––––––––––––––––––––––––––––

Количество треков: 54
Реальные значения DR: DR9

Частота: 48000 Гц
Каналов: 2
Разрядность: 24
Битрейт: 1772 кбит/с
Кодек: FLAC
================================================================================


Thanks to the Original customer.
hitfile