Moby & The Void Pacific Choir - These Systems Are Failing (Deluxe Version) (2016) [TR24][OF]


Moby & The Void Pacific Choir - These Systems Are Failing (Deluxe Version)
Electronic, Alternative | FLAC (tracks) 24-bit/96 kHz | 48:48 min | 1.11 GB | Digital booklet
Label: Little Idiot | Tracks: 12 | Rls.date: 2016

These Systems Are Failing. All of them. We built great cities. Great industries. Great systems. These systems were supposed to protect us, to free us, but instead they've poisoned our air, killed the animals, butchered the land - and destroyed ourselves. We think we’ve conquered the problems of food production and wealth distribution, yet we’re more miserable than ever. These Systems Are Failing is the name of my new album. It is my first as Moby & The Pacific Void Choir.

TRACKLIST
01. Hey! Hey! (4:23)
02. Break. Doubt (4:13)
03. I Wait for You (4:00)
04. Don’t Leave Me (4:39)
05. Errupt And Matter (4:09)
06. Are You Lost In the World Like Me? (4:27)
07. A Simple Love (4:40)
08. The Light Is Clear In My Eyes (3:27)
09. And It Hurts (1:54)
10. Almost Loved (5:05)
11. The Nighttime (4:11)
12. Dark Star (3:48)

foobar2000 1.3.7 / Замер динамического диапазона (DR) 1.1.1
Дата отчёта: 2017-01-07 15:36:53

––––––––––––––––––––––––––––––––––––––––
Анализ: Moby & The Void Pacific Choir / These Systems Are Failing (Deluxe Version)
––––––––––––––––––––––––––––––––––––––––

DR Пики RMS Продолжительность трека
––––––––––––––––––––––––––––––––––––––––
DR3 -0.40 дБ -4.36 дБ 4:23 1-Hey! Hey!
DR2 -0.40 дБ -4.38 дБ 4:13 2-Break. Doubt
DR3 -0.40 дБ -5.04 дБ 4:00 3-I Wait for You
DR3 -0.40 дБ -5.17 дБ 4:39 4-Don't Leave Me
DR2 -0.40 дБ -4.40 дБ 4:09 5-Errupt And Matter
DR2 -0.40 дБ -4.79 дБ 4:27 6-Are You Lost In the World Like Me?
DR3 -0.80 дБ -5.81 дБ 4:39 7-A Simple Love
DR3 -0.80 дБ -4.73 дБ 3:27 8-The Light Is Clear In My Eyes
DR3 -0.70 дБ -4.75 дБ 1:54 9-And It Hurts
DR3 -0.40 дБ -5.00 дБ 5:06 10-Almost Loved
DR3 -0.80 дБ -5.42 дБ 4:11 11-The Nighttime
DR3 -0.60 дБ -4.92 дБ 3:48 12-Dark Star
––––––––––––––––––––––––––––––––––––––––

Количество треков: 12
Реальные значения DR: DR3

Частота: 96000 Гц
Каналов: 2
Разрядность: 24
Битрейт: 3278 кбит/с
Кодек: FLAC
================================================================================


Thanks to the Original customer.