Arabesque - Arabesque I-V (1978-1981) Japanese Remastered Reissue [5CD]


Arabesque - Arabesque I-V (1978-1981) Japanese Remastered Reissue [5CD]
EAC | FLAC | Image (Cue&Log) ~ 1.5 Gb | Mp3 (CBR320) ~ 705 Mb | Complete Scans Included
Genre: Disco, Dance Pop | Label: Victor | # VICP-2118, VICP-60247-60250 | Time: 03:00:31

The all-girl trio Arabesque was created by two Frankfurt-based German producers at the height of the disco era in 1977. After one album and a few singles that had found surprising success in Japan, the producers changed the lineup, keeping Michaela Rose and replacing the two other girls with Jasmin Vetter and Sandra Lauer. Vetter, a former gymnast, also became the trio's choreographer and Lauer, soon to be billed simply as Sandra, assumed the position of a lead vocalist. The first single of the updated Arabesque, "Hello, Mr. Monkey" went to number one in Japan. The Far East remained the band's biggest market, with numerous albums and compilations released over the years. However, Arabesque's success in their homeland was very modest, with only one single, "Marigot Bay," entering the German charts at number eight in 1981. In 1984, they disbanded and Sandra embarked on a successful solo career with the songs written by her future husband Michael Cretu (of Enigma fame.) Jasmin Vetter and Michaela Rose formed a new duet, Rouge, but after a few obscure singles it ceased to exist.

Yuri German, Allmusic.com






---------------------------------------------------------------------------------



Arabesque - Arabesque I aka Friday Night (1978) Japanese Remastered Reissue 1995
EAC | FLAC | Image (Cue&Log) ~ 324 Mb | Mp3 (CBR320) ~ 142 Mb
Label: Victor | # VICP-2118 | Time: 00:37:35 | Scans included


Tracklist:

01. Hello Mr. Monkey (03:28)
02. Fly High Little Butterfly (03:26)
03. Someone Is Waiting For You (04:03)
04. The Man With The Gun (02:58)
05. Six Times A Day (03:10)
06. Buggy Boy (02:56)
07. Friday Night (04:15)
08. Catch Me Tiger (04:54)
09. Give It Up (03:57)
10. Love Is Just A Game (04:25)


Exact Audio Copy V1.0 beta 4 from 7. December 2014

Отчёт EAC об извлечении, выполненном 20. декабря 2014, 11:05

Arabesque / Arabesque

Дисковод: SONY CD-RW CRX230ED Adapter: 1 ID: 0

Режим чтения : Достоверность
Использование точного потока : Да
Отключение кэша аудио : Да
Использование указателей C2 : Нет

Коррекция смещения при чтении : 6
Способность читать области Lead-in и Lead-out : Нет
Заполнение пропущенных сэмплов тишиной : Да
Удаление блоков с тишиной в начале и конце : Нет
При вычислениях CRC использовались нулевые сэмплы : Да
Интерфейс : Встроенный Win32-интерфейс для Win NT/2000

Выходной формат : Внутренние WAV-операции
Формат сэмплов : 44.100 Гц; 16 бит; стерео


TOC извлечённого CD

Трек | Старт | Длительность | Начальный сектор | Конечный сектор
---------------------------------------------------------------------
1 | 0:00.37 | 3:28.10 | 37 | 15646
2 | 3:28.47 | 3:26.33 | 15647 | 31129
3 | 6:55.05 | 4:03.27 | 31130 | 49381
4 | 10:58.32 | 2:58.73 | 49382 | 62804
5 | 13:57.30 | 3:10.62 | 62805 | 77116
6 | 17:08.17 | 2:56.23 | 77117 | 90339
7 | 20:04.40 | 4:15.05 | 90340 | 109469
8 | 24:19.45 | 4:54.07 | 109470 | 131526
9 | 29:13.52 | 3:57.05 | 131527 | 149306
10 | 33:10.57 | 4:25.13 | 149307 | 169194


Характеристики диапазона извлечения и сообщения об ошибках

Выбранный диапазон

Имя файла F:MusicCDTorrentArabesque - Collection (Japanese Edition)ArabesqueArabesque - Arabesque.wav

Пиковый уровень 100.0 %
Скорость извлечения 6.7 X
Качество диапазона 99.9 %
CRC теста D495125C
CRC копии D495125C
Копирование... OK

Ошибок не произошло


AccurateRip: сводка

Трек 1 : извлечено точно (доверие 2) [B5E29934] (AR v2)
Трек 2 : извлечено точно (доверие 3) [92613AA1] (AR v1)
Трек 3 : извлечено точно (доверие 3) [BFEB1C58] (AR v1)
Трек 4 : извлечено точно (доверие 3) [C4C449DD] (AR v1)
Трек 5 : извлечено точно (доверие 3) [AF83255A] (AR v1)
Трек 6 : извлечено точно (доверие 3) [E83082A5] (AR v1)
Трек 7 : извлечено точно (доверие 3) [801109D8] (AR v1)
Трек 8 : извлечено точно (доверие 3) [503B64D5] (AR v1)
Трек 9 : извлечено точно (доверие 3) [0C8D75B7] (AR v1)
Трек 10 : извлечено точно (доверие 3) [9CF4639F] (AR v1)

Все треки извлечены точно

Конец отчёта

---- CUETools DB Plugin V2.1.4

[CTDB TOCID: fPoK8V3cEbmY2mOlGw3E.rrC770-] found
Submit result: already submitted
Track | CTDB Status
1 | (3/3) Accurately ripped
2 | (3/3) Accurately ripped
3 | (3/3) Accurately ripped
4 | (3/3) Accurately ripped
5 | (3/3) Accurately ripped
6 | (3/3) Accurately ripped
7 | (3/3) Accurately ripped
8 | (3/3) Accurately ripped
9 | (3/3) Accurately ripped
10 | (3/3) Accurately ripped


==== Контрольная сумма отчёта 8D6EAC00FEFC8141415D442F3CBD69D7434003C06D7391064F7E983E98ED8AAD ====

foobar2000 1.2 / Dynamic Range Meter 1.1.1
log date: 2014-12-21 15:29:11

--------------------------------------------------------------------------------
Analyzed: Arabesque / Arabesque
--------------------------------------------------------------------------------

DR Peak RMS Duration Track
--------------------------------------------------------------------------------
DR8 0.00 dB -9.22 dB 3:28 01-Hello Mr. Monkey
DR7 -0.50 dB -8.81 dB 3:26 02-Fly High Little Butterfly
DR7 0.00 dB -8.79 dB 4:03 03-Someone Is Waiting For You
DR7 0.00 dB -8.51 dB 2:59 04-The Man With The Gun
DR8 0.00 dB -8.85 dB 3:11 05-Six Times A Day
DR9 0.00 dB -9.75 dB 2:56 06-Buggy Boy
DR8 0.00 dB -9.42 dB 4:15 07-Friday Night
DR9 0.00 dB -9.79 dB 4:54 08-Catch Me Tiger
DR8 0.00 dB -9.20 dB 3:57 09-Give It Up
DR7 0.00 dB -8.76 dB 4:25 10-Love Is Just A Game
--------------------------------------------------------------------------------

Number of tracks: 10
Official DR value: DR8

Samplerate: 44100 Hz
Channels: 2
Bits per sample: 16
Bitrate: 963 kbps
Codec: FLAC
================================================================================


---------------------------------------------------------------------------------



Arabesque - Arabesque II / aka Peppermint Jack / aka City Cats (1979) Japanese Remastered Reissue 1998
EAC | FLAC | Image (Cue&Log) ~ 314 Mb | Mp3 (CBR320) ~ 144 Mb
Label: Victor | # VICP-60247 | Time: 00:36:52 | Scans included


Tracklist:

01. Peppermint Jack (03:07)
02. In The Heat Of A Disco Night (03:16)
03. Rock Me After Midnight (03:49)
04. Lucifer's Lover (03:32)
05. Dancing In The Fire Of Love (03:29)
06. It's So Hard To Leave You (04:03)
07. Hell Driver (04:56)
08. City Cats (03:05)
09. Don't Kiss A Crocodile (03:31)
10. Plastic Heart (03:59)


Exact Audio Copy V1.0 beta 4 from 7. December 2014

Отчёт EAC об извлечении, выполненном 20. декабря 2014, 10:50

Arabesque / II

Дисковод: SONY CD-RW CRX230ED Adapter: 1 ID: 0

Режим чтения : Достоверность
Использование точного потока : Да
Отключение кэша аудио : Да
Использование указателей C2 : Нет

Коррекция смещения при чтении : 6
Способность читать области Lead-in и Lead-out : Нет
Заполнение пропущенных сэмплов тишиной : Да
Удаление блоков с тишиной в начале и конце : Нет
При вычислениях CRC использовались нулевые сэмплы : Да
Интерфейс : Встроенный Win32-интерфейс для Win NT/2000

Выходной формат : Внутренние WAV-операции
Формат сэмплов : 44.100 Гц; 16 бит; стерео


TOC извлечённого CD

Трек | Старт | Длительность | Начальный сектор | Конечный сектор
---------------------------------------------------------------------
1 | 0:00.37 | 3:07.08 | 37 | 14069
2 | 3:07.45 | 3:16.70 | 14070 | 28839
3 | 6:24.40 | 3:49.62 | 28840 | 46076
4 | 10:14.27 | 3:32.48 | 46077 | 62024
5 | 13:47.00 | 3:29.40 | 62025 | 77739
6 | 17:16.40 | 4:03.22 | 77740 | 95986
7 | 21:19.62 | 4:56.53 | 95987 | 118239
8 | 26:16.40 | 3:05.00 | 118240 | 132114
9 | 29:21.40 | 3:31.30 | 132115 | 147969
10 | 32:52.70 | 3:59.32 | 147970 | 165926


Характеристики диапазона извлечения и сообщения об ошибках

Выбранный диапазон

Имя файла F:MusicCDTorrentArabesque - Collection (Japanese Edition)Arabesque IIArabesque - II.wav

Пиковый уровень 100.0 %
Скорость извлечения 6.7 X
Качество диапазона 100.0 %
CRC теста 5443C24F
CRC копии 5443C24F
Копирование... OK

Ошибок не произошло


AccurateRip: сводка

Трек 1 : извлечено точно (доверие 1) [98EBA7F0] (AR v1)
Трек 2 : извлечено точно (доверие 1) [8D135D1C] (AR v1)
Трек 3 : извлечено точно (доверие 1) [9A909A22] (AR v1)
Трек 4 : извлечено точно (доверие 1) [DAF516A0] (AR v1)
Трек 5 : извлечено точно (доверие 1) [F9F8581B] (AR v1)
Трек 6 : извлечено точно (доверие 1) [4E59F43C] (AR v1)
Трек 7 : извлечено точно (доверие 1) [3933655D] (AR v1)
Трек 8 : извлечено точно (доверие 1) [C37D1DB2] (AR v1)
Трек 9 : извлечено точно (доверие 1) [D232D837] (AR v1)
Трек 10 : извлечено точно (доверие 1) [FF230E37] (AR v1)

Все треки извлечены точно

Конец отчёта

---- CUETools DB Plugin V2.1.4

[CTDB TOCID: snWGK.e6_ilIbyUCk8abDPEbClM-] found
Submit result: snWGK.e6_ilIbyUCk8abDPEbClM- has been uploaded
Track | CTDB Status
1 | (0/1) No match
2 | (1/1) Accurately ripped
3 | (1/1) Accurately ripped
4 | (1/1) Accurately ripped
5 | (1/1) Accurately ripped
6 | (1/1) Accurately ripped
7 | (1/1) Accurately ripped
8 | (1/1) Accurately ripped
9 | (1/1) Accurately ripped
10 | (1/1) Accurately ripped


==== Контрольная сумма отчёта 0BD6DA97400ADC293A0FB2A0AB88F2CEF95894C2D8EB062F8EB70574C50EFFBC ====

foobar2000 1.2 / Dynamic Range Meter 1.1.1
log date: 2014-12-21 15:29:29

--------------------------------------------------------------------------------
Analyzed: Arabesque / II
--------------------------------------------------------------------------------

DR Peak RMS Duration Track
--------------------------------------------------------------------------------
DR13 0.00 dB -14.63 dB 3:07 01-Peppermint Jack
DR12 0.00 dB -14.26 dB 3:17 02-In The Heat Of A Disco Night
DR11 -0.94 dB -13.96 dB 3:50 03-Rock Me After Midnight
DR12 0.00 dB -13.88 dB 3:33 04-Lucifer's Lover
DR12 -0.10 dB -13.81 dB 3:30 05-Dancing In The Fire Of Love
DR10 -1.10 dB -13.50 dB 4:03 06-It's So Hard To Leave You
DR11 -0.83 dB -13.20 dB 4:57 07-Hell Driver
DR13 0.00 dB -14.16 dB 3:05 08-City Cats
DR13 0.00 dB -14.96 dB 3:31 09-Don't Kiss A Crocodile
DR13 0.00 dB -14.60 dB 3:59 10-Plastic Heart
--------------------------------------------------------------------------------

Number of tracks: 10
Official DR value: DR12

Samplerate: 44100 Hz
Channels: 2
Bits per sample: 16
Bitrate: 933 kbps
Codec: FLAC
================================================================================


---------------------------------------------------------------------------------



Arabesque - Arabesque III aka Marigot Bay (1980) Japanese Remastered Reissue 1998
EAC | FLAC | Image (Cue&Log) ~ 285 Mb | Mp3 (CBR320) ~ 134 Mb
Label: Victor | # VICP-60248 | Time: 00:33:55 | Scans included


Tracklist:

01. High Life (03:07)
02. Jingle Jangle Joe (03:10)
03. Roller Star (03:40)
04. Bye Bye My Love (03:29)
05. Marigot Bay (03:50)
06. Parties In A Penthouse (03:18)
07. Once In A Blue Moon (03:18)
08. Hey, Catch On (03:21)
09. Take Me, Don't Break Me (03:17)
10. The Only Night Was A Lonely Night (03:20)


Exact Audio Copy V1.0 beta 4 from 7. December 2014

Отчёт EAC об извлечении, выполненном 20. декабря 2014, 11:20

Arabesque / III

Дисковод: SONY CD-RW CRX230ED Adapter: 1 ID: 0

Режим чтения : Достоверность
Использование точного потока : Да
Отключение кэша аудио : Да
Использование указателей C2 : Нет

Коррекция смещения при чтении : 6
Способность читать области Lead-in и Lead-out : Нет
Заполнение пропущенных сэмплов тишиной : Да
Удаление блоков с тишиной в начале и конце : Нет
При вычислениях CRC использовались нулевые сэмплы : Да
Интерфейс : Встроенный Win32-интерфейс для Win NT/2000

Выходной формат : Внутренние WAV-операции
Формат сэмплов : 44.100 Гц; 16 бит; стерео


TOC извлечённого CD

Трек | Старт | Длительность | Начальный сектор | Конечный сектор
---------------------------------------------------------------------
1 | 0:00.37 | 3:07.30 | 37 | 14091
2 | 3:07.67 | 3:10.28 | 14092 | 28369
3 | 6:18.20 | 3:40.35 | 28370 | 44904
4 | 9:58.55 | 3:29.30 | 44905 | 60609
5 | 13:28.10 | 3:50.52 | 60610 | 77911
6 | 17:18.62 | 3:18.53 | 77912 | 92814
7 | 20:37.40 | 3:18.55 | 92815 | 107719
8 | 23:56.20 | 3:21.02 | 107720 | 122796
9 | 27:17.22 | 3:17.63 | 122797 | 137634
10 | 30:35.10 | 3:20.50 | 137635 | 152684


Характеристики диапазона извлечения и сообщения об ошибках

Выбранный диапазон

Имя файла F:MusicCDTorrentArabesque - Collection (Japanese Edition)Arabesque IIIArabesque - III.wav

Пиковый уровень 100.0 %
Скорость извлечения 6.5 X
Качество диапазона 99.9 %
CRC теста C77F7C46
CRC копии C77F7C46
Копирование... OK

Ошибок не произошло


AccurateRip: сводка

Трек 1 : извлечено точно (доверие 1) [61CBD119] (AR v2)
Трек 2 : извлечено точно (доверие 1) [7425054C] (AR v2)
Трек 3 : извлечено точно (доверие 1) [CD219F26] (AR v2)
Трек 4 : извлечено точно (доверие 1) [C40E6C1F] (AR v2)
Трек 5 : извлечено точно (доверие 1) [45A12892] (AR v2)
Трек 6 : извлечено точно (доверие 1) [7EC91ADE] (AR v2)
Трек 7 : извлечено точно (доверие 1) [6A4AA344] (AR v2)
Трек 8 : извлечено точно (доверие 1) [69DBC015] (AR v2)
Трек 9 : извлечено точно (доверие 1) [E3AE9DDD] (AR v2)
Трек 10 : извлечено точно (доверие 1) [AA8E4FD0] (AR v2)

Все треки извлечены точно

Конец отчёта

---- CUETools DB Plugin V2.1.4

[CTDB TOCID: Y0Y8.0pDm6uSgmqup1uE4N2iwak-] found
Submit result: Y0Y8.0pDm6uSgmqup1uE4N2iwak- has been confirmed
Track | CTDB Status
1 | (1/1) Accurately ripped
2 | (1/1) Accurately ripped
3 | (1/1) Accurately ripped
4 | (1/1) Accurately ripped
5 | (1/1) Accurately ripped
6 | (1/1) Accurately ripped
7 | (1/1) Accurately ripped
8 | (1/1) Accurately ripped
9 | (1/1) Accurately ripped
10 | (1/1) Accurately ripped


==== Контрольная сумма отчёта 1C8041397F8ECCA1C8BA52C4F26DA3E515C0991D71498E8F79372F68A447ED52 ====

foobar2000 1.2 / Dynamic Range Meter 1.1.1
log date: 2014-12-21 15:29:41

--------------------------------------------------------------------------------
Analyzed: Arabesque / III
--------------------------------------------------------------------------------

DR Peak RMS Duration Track
--------------------------------------------------------------------------------
DR14 0.00 dB -15.08 dB 3:07 01-High Life
DR13 -0.56 dB -15.54 dB 3:10 02-Jingle Jangle Joe
DR13 -0.21 dB -14.44 dB 3:40 03-Roller Star
DR13 0.00 dB -15.27 dB 3:29 04-Bye Bye My Love
DR12 -0.56 dB -15.89 dB 3:51 05-Marigot Bay
DR12 -0.49 dB -14.72 dB 3:19 06-Parties In A Penthouse
DR12 -1.02 dB -14.75 dB 3:19 07-Once In A Blue Moon
DR13 -0.31 dB -14.23 dB 3:21 08-Hey, Catch On
DR12 0.00 dB -14.20 dB 3:18 09-Take Me, Don't Break Me
DR11 -1.88 dB -15.76 dB 3:21 10-The Only Night Was A Lonely Night
--------------------------------------------------------------------------------

Number of tracks: 10
Official DR value: DR13

Samplerate: 44100 Hz
Channels: 2
Bits per sample: 16
Bitrate: 911 kbps
Codec: FLAC
================================================================================


---------------------------------------------------------------------------------



Arabesque - Arabesque IV aka Midnight Dancer (1980) Japanese Remastered Reissue 1998
EAC | FLAC | Image (Cue&Log) ~ 307 Mb | Mp3 (CBR320) ~ 142 Mb
Label: Victor | # VICP-60249 | Time: 00:37:15 | Scans included


Tracklist:

01. Make Love Whenever You Can (03:45)
02. Keep The Wolf From The Door (04:20)
03. I Don't Wanna Have Breakfast With You (03:48)
04. Nights In The Harbour (04:31)
05. Hey What A Magic Night (03:13)
06. Midnight Dancer (03:40)
07. Hi Hi Highway (04:04)
08. You Win, Hands Down (02:55)
09. Black Out (03:26)
10. Born To Reggae (03:28)


Exact Audio Copy V1.0 beta 4 from 7. December 2014

Отчёт EAC об извлечении, выполненном 20. декабря 2014, 11:34

Arabesque / IV

Дисковод: SONY CD-RW CRX230ED Adapter: 1 ID: 0

Режим чтения : Достоверность
Использование точного потока : Да
Отключение кэша аудио : Да
Использование указателей C2 : Нет

Коррекция смещения при чтении : 6
Способность читать области Lead-in и Lead-out : Нет
Заполнение пропущенных сэмплов тишиной : Да
Удаление блоков с тишиной в начале и конце : Нет
При вычислениях CRC использовались нулевые сэмплы : Да
Интерфейс : Встроенный Win32-интерфейс для Win NT/2000

Выходной формат : Внутренние WAV-операции
Формат сэмплов : 44.100 Гц; 16 бит; стерео


TOC извлечённого CD

Трек | Старт | Длительность | Начальный сектор | Конечный сектор
---------------------------------------------------------------------
1 | 0:00.37 | 3:45.58 | 37 | 16969
2 | 3:46.20 | 4:20.00 | 16970 | 36469
3 | 8:06.20 | 3:48.62 | 36470 | 53631
4 | 11:55.07 | 4:31.48 | 53632 | 74004
5 | 16:26.55 | 3:13.37 | 74005 | 88516
6 | 19:40.17 | 3:40.60 | 88517 | 105076
7 | 23:21.02 | 4:04.50 | 105077 | 123426
8 | 27:25.52 | 2:55.68 | 123427 | 136619
9 | 30:21.45 | 3:26.15 | 136620 | 152084
10 | 33:47.60 | 3:28.10 | 152085 | 167694


Характеристики диапазона извлечения и сообщения об ошибках

Выбранный диапазон

Имя файла F:MusicCDTorrentArabesque - Collection (Japanese Edition)Arabesque IVArabesque - IV.wav

Пиковый уровень 100.0 %
Скорость извлечения 6.8 X
Качество диапазона 100.0 %
CRC теста F53D778D
CRC копии F53D778D
Копирование... OK

Ошибок не произошло


AccurateRip: сводка

Трек 1 : извлечено точно (доверие 3) [C759F3A1] (AR v2)
Трек 2 : извлечено точно (доверие 3) [F7E349F6] (AR v2)
Трек 3 : извлечено точно (доверие 3) [515815D6] (AR v2)
Трек 4 : извлечено точно (доверие 3) [AD1E432F] (AR v2)
Трек 5 : извлечено точно (доверие 2) [145496E0] (AR v2)
Трек 6 : извлечено точно (доверие 3) [3806FCE8] (AR v2)
Трек 7 : извлечено точно (доверие 3) [6523967C] (AR v2)
Трек 8 : извлечено точно (доверие 3) [212BBB8D] (AR v2)
Трек 9 : извлечено точно (доверие 3) [2A08C8DB] (AR v2)
Трек 10 : извлечено точно (доверие 3) [507A3DFE] (AR v2)

Все треки извлечены точно

Конец отчёта

---- CUETools DB Plugin V2.1.4

[CTDB TOCID: qTAl2EwXDMH0tyTD8k4elOdBxYs-] found
Submit result: qTAl2EwXDMH0tyTD8k4elOdBxYs- has been confirmed
Track | CTDB Status
1 | (1/2) Accurately ripped
2 | (2/2) Accurately ripped
3 | (2/2) Accurately ripped
4 | (2/2) Accurately ripped
5 | (2/2) Accurately ripped
6 | (2/2) Accurately ripped
7 | (2/2) Accurately ripped
8 | (2/2) Accurately ripped
9 | (2/2) Accurately ripped
10 | (2/2) Accurately ripped


==== Контрольная сумма отчёта 4735D354D2918AA239D6CD9E8FA56D8C1FFACDFDD6B3FEE2CF21E5644BF37275 ====

foobar2000 1.2 / Dynamic Range Meter 1.1.1
log date: 2014-12-21 15:29:55

--------------------------------------------------------------------------------
Analyzed: Arabesque / IV
--------------------------------------------------------------------------------

DR Peak RMS Duration Track
--------------------------------------------------------------------------------
DR12 0.00 dB -13.96 dB 3:46 01-Make Love Whenever You Can
DR12 0.00 dB -13.88 dB 4:20 02-Keep The Wolf From The Door
DR12 -0.33 dB -14.38 dB 3:49 03-I Don't Wanna Have Breakfast With You
DR11 -0.89 dB -13.93 dB 4:32 04-Nights In The Harbour
DR12 -0.88 dB -14.38 dB 3:13 05-Hey What A Magic Night
DR12 -0.52 dB -14.16 dB 3:41 06-Midnight Dancer
DR13 0.00 dB -14.46 dB 4:05 07-Hi Hi Highway
DR12 -0.80 dB -14.40 dB 2:56 08-You Win, Hands Down
DR12 -0.37 dB -13.76 dB 3:26 09-Black Out
DR12 -0.20 dB -14.99 dB 3:28 10-Born To Reggae
--------------------------------------------------------------------------------

Number of tracks: 10
Official DR value: DR12

Samplerate: 44100 Hz
Channels: 2
Bits per sample: 16
Bitrate: 908 kbps
Codec: FLAC
================================================================================


---------------------------------------------------------------------------------



Arabesque - Arabesque V / aka Billy’s Barbeque / aka In For A Penny (1981) Japanese Remastered Reissue 1998
EAC | FLAC | Image (Cue&Log) ~ 296 Mb | Mp3 (CBR320) ~ 143 Mb
Label: Victor | # VICP-60250 | Time: 00:34:53 | Scans included


Tracklist:

01. In For A Penny, In For A Pound (03:00)
02. The Hero Of My Life (03:48)
03. Like A Shot In The Dark (03:45)
04. Run The Show (03:16)
05. Indio Boy (03:59)
06. Billy's Barbeque (02:48)
07. The Doctor Likes Music (02:56)
08. The Rebels Of The Bounty (04:00)
09. Let's Make A Night Of It (03:32)
10. I Stand By You (03:45)


Exact Audio Copy V1.0 beta 4 from 7. December 2014

Отчёт EAC об извлечении, выполненном 20. декабря 2014, 11:48

Arabesque / V

Дисковод: SONY CD-RW CRX230ED Adapter: 1 ID: 0

Режим чтения : Достоверность
Использование точного потока : Да
Отключение кэша аудио : Да
Использование указателей C2 : Нет

Коррекция смещения при чтении : 6
Способность читать области Lead-in и Lead-out : Нет
Заполнение пропущенных сэмплов тишиной : Да
Удаление блоков с тишиной в начале и конце : Нет
При вычислениях CRC использовались нулевые сэмплы : Да
Интерфейс : Встроенный Win32-интерфейс для Win NT/2000

Выходной формат : Внутренние WAV-операции
Формат сэмплов : 44.100 Гц; 16 бит; стерео


TOC извлечённого CD

Трек | Старт | Длительность | Начальный сектор | Конечный сектор
---------------------------------------------------------------------
1 | 0:00.37 | 3:00.50 | 37 | 13586
2 | 3:01.12 | 3:48.28 | 13587 | 30714
3 | 6:49.40 | 3:45.07 | 30715 | 47596
4 | 10:34.47 | 3:16.20 | 47597 | 62316
5 | 13:50.67 | 3:59.38 | 62317 | 80279
6 | 17:50.30 | 2:48.60 | 80280 | 92939
7 | 20:39.15 | 2:56.55 | 92940 | 106194
8 | 23:35.70 | 4:00.02 | 106195 | 124196
9 | 27:35.72 | 3:32.33 | 124197 | 140129
10 | 31:08.30 | 3:45.25 | 140130 | 157029


Характеристики диапазона извлечения и сообщения об ошибках

Выбранный диапазон

Имя файла F:MusicCDTorrentArabesque - Collection (Japanese Edition)Arabesque VArabesque - V.wav

Пиковый уровень 98.8 %
Скорость извлечения 6.6 X
Качество диапазона 100.0 %
CRC теста BC8187DB
CRC копии BC8187DB
Копирование... OK

Ошибок не произошло


AccurateRip: сводка

Трек 1 : извлечено точно (доверие 3) [7098ED0E] (AR v1)
Трек 2 : извлечено точно (доверие 3) [4868988E] (AR v1)
Трек 3 : извлечено точно (доверие 3) [32D4F938] (AR v1)
Трек 4 : извлечено точно (доверие 3) [9B40B0F3] (AR v1)
Трек 5 : извлечено точно (доверие 3) [EB5C149D] (AR v1)
Трек 6 : извлечено точно (доверие 3) [89C12E34] (AR v1)
Трек 7 : извлечено точно (доверие 3) [E0151D10] (AR v1)
Трек 8 : извлечено точно (доверие 3) [256A977A] (AR v1)
Трек 9 : извлечено точно (доверие 3) [2BE41EEA] (AR v1)
Трек 10 : извлечено точно (доверие 3) [6353E589] (AR v1)

Все треки извлечены точно

Конец отчёта

---- CUETools DB Plugin V2.1.4

[CTDB TOCID: qOYVwIdgi39B6SecPUdqv4eZuFM-] found
Submit result: qOYVwIdgi39B6SecPUdqv4eZuFM- has been confirmed
Track | CTDB Status
1 | (1/2) Accurately ripped
2 | (2/2) Accurately ripped
3 | (2/2) Accurately ripped
4 | (2/2) Accurately ripped
5 | (2/2) Accurately ripped
6 | (2/2) Accurately ripped
7 | (2/2) Accurately ripped
8 | (2/2) Accurately ripped
9 | (2/2) Accurately ripped
10 | (2/2) Accurately ripped


==== Контрольная сумма отчёта 4D9599F75C200B930A1084CA683C33165880E9B5FB33DEBEF71DC5CC550AEBD7 ====

foobar2000 1.2 / Dynamic Range Meter 1.1.1
log date: 2014-12-21 15:30:09

--------------------------------------------------------------------------------
Analyzed: Arabesque / V
--------------------------------------------------------------------------------

DR Peak RMS Duration Track
--------------------------------------------------------------------------------
DR9 -0.10 dB -10.50 dB 3:01 01-In For A Penny, In For A Pound
DR9 -0.10 dB -10.80 dB 3:48 02-The Hero Of My Life
DR8 -0.10 dB -9.83 dB 3:45 03-Like A Shot In The Dark
DR9 -0.10 dB -10.43 dB 3:16 04-Run The Show
DR9 -0.10 dB -10.69 dB 4:00 05-Indio Boy
DR9 -0.10 dB -10.17 dB 2:49 06-Billy's Barbeque
DR9 -0.10 dB -10.41 dB 2:57 07-The Doctor Likes Music
DR9 -0.10 dB -10.43 dB 4:00 08-The Rebels Of The Bounty
DR8 -0.10 dB -9.62 dB 3:32 09-Let's Make A Night Of It
DR9 -0.10 dB -10.52 dB 3:45 10-I Stand By You
--------------------------------------------------------------------------------

Number of tracks: 10
Official DR value: DR9

Samplerate: 44100 Hz
Channels: 2
Bits per sample: 16
Bitrate: 905 kbps
Codec: FLAC
================================================================================


---------------------------------------------------------------------------------


All thanks to original releaser - squirr



Password: designol