Вход в свой аккаунт

Или войдите через соц. сети

Passport - Oceanliner (1980)


Passport - Oceanliner (1980)
EAC Rip | FLAC: Tracks+Cue+Log | 245 Mb | MP3 CBR 320 kbps | 94 Mb | Scans | Time: 39:20
Genre: Jazz Rock, Fusion | Label: Atlantic/WEA Musik GmbH | Cat.в„–: 2292-46479-2

“ Passport's albums always reflect the time in which they were released. Since 'Oceanliner' came out in 1980, they are already working with two strikes against them. Most of this album is made up of early 80s pop/dance music with jazz and funk overtones, and very little of it is memorable. ”


| | |




Track Listing

01. Departure (04:58)
02. Allegory (03:45)
03. Ancient Saga (04:19)
04. Oceanliner (05:54)
05. Rub-A-Dub (04:43)
06. Uptown Rendezvous (03:36)
07. Bassride (04:11)
08. Scope (02:20)
09. Seaside (05:31)

Produced by Klaus Doldinger

The Band

• David Crigger - Drums, Percussion
• Dieter Petereit - Bass
• Hendrik Schaper - Keyboards
• Kevin Mulligan - Guitar, Vocals
• Klaus Doldinger - Saxophones, Lyricon, Keyboards, Vocoder

Notes

в“… 1980 в’ё 1990

EAC extraction logfile from 5. May 2007, 14:31 for CD
Passport / Oceanliner

Used drive : AOPEN CRW5232/AAO Adapter: 1 ID: 0
Read mode : Secure with NO C2, accurate stream, disable cache
Read offset correction : 738
Overread into Lead-In and Lead-Out : No

Used output format : C:Program FilesExact Audio Copyflac.exe (User Defined Encoder)
320 kBit/s
Additional command line options : -T "artist=%a" -T "title=%t" -T "album=%g" -T "date=%y" -T "tracknumber=%n" -T "genre=%m" %s

Other options :
Fill up missing offset samples with silence : Yes
Delete leading and trailing silent blocks : No
Installed external ASPI interface


Track 1
Filename G:MusicPassport - Oceanliner (1980) [FLAC]1 - Departure.wav

Pre-gap length 0:00:02.00

Peak level 90.1 %
Track quality 100.0 %
Test CRC F03374EA
Copy CRC F03374EA
Copy OK

Track 2
Filename G:MusicPassport - Oceanliner (1980) [FLAC]2 - Allegory.wav

Peak level 89.9 %
Track quality 99.9 %
Test CRC DF3105AA
Copy CRC DF3105AA
Copy OK

Track 3
Filename G:MusicPassport - Oceanliner (1980) [FLAC]3 - Ancient Saga.wav

Peak level 81.7 %
Track quality 100.0 %
Test CRC F5E4EA68
Copy CRC F5E4EA68
Copy OK

Track 4
Filename G:MusicPassport - Oceanliner (1980) [FLAC]4 - Oceanliner.wav

Pre-gap length 0:00:00.04

Peak level 100.0 %
Track quality 100.0 %
Test CRC A835332D
Copy CRC A835332D
Copy OK

Track 5
Filename G:MusicPassport - Oceanliner (1980) [FLAC]5 - Rub-A-Dub.wav

Peak level 88.5 %
Track quality 100.0 %
Test CRC E818D154
Copy CRC E818D154
Copy OK

Track 6
Filename G:MusicPassport - Oceanliner (1980) [FLAC]6 - Uptown Rendezvous.wav

Pre-gap length 0:00:00.03

Peak level 99.9 %
Track quality 100.0 %
Test CRC 0F301E2D
Copy CRC 0F301E2D
Copy OK

Track 7
Filename G:MusicPassport - Oceanliner (1980) [FLAC]7 - Bassride.wav

Peak level 96.3 %
Track quality 100.0 %
Test CRC 6046D187
Copy CRC 6046D187
Copy OK

Track 8
Filename G:MusicPassport - Oceanliner (1980) [FLAC]8 - Scope.wav

Pre-gap length 0:00:00.09

Peak level 59.5 %
Track quality 99.9 %
Test CRC 3BE33063
Copy CRC 3BE33063
Copy OK

Track 9
Filename G:MusicPassport - Oceanliner (1980) [FLAC]9 - Seaside.wav

Pre-gap length 0:00:00.05

Peak level 90.8 %
Track quality 100.0 %
Test CRC 573D7DF4
Copy CRC 573D7DF4
Copy OK

No errors occured


End of status report


Many thanks to the original uploader: szenghis























Turbobit

|