Enuff Z'Nuff - Covered In Gold (2014)


Enuff Z'Nuff - Covered In Gold (2014)
EAC Rip | FLAC: Image+Cue+Log | 377 Mb | MP3 CBR 320 kbps | 132 Mb | Scans | Time: 49:48
Genre: Hard Rock, Power Pop, Tribute | Label: Cleopatra/DeadLine Music | Cat.№: CLP 1957

Everyone’s favorite hippy hard rockers Enuff Z’nuff pay it forward with a heartfelt salute to the music and artists who inspired them! Features an eclectic assortment of outstanding cover tunes including Bowie’s “The Jean Genie,” Nirvana’s “All Apologies,” Prince’s “When Doves Cry,” and Smokey Robinson’s “Tears Of A Clown” PLUS 2 exclusive live tracks! Celebrating their 30th year as a band, Enuff Z’nuff continue to grow their cult fanbase around the world, which includes shock jock Howard Stern (Chip Z’nuff is a regular guest on The Howard Stern Show)!


| | |




Track Listing

01. Everything Works If You Let It (CHEAP TRICK cover) (03:15)
02. Stone Cold Crazy (QUEEN cover) (02:32)
03. She Sells Sanctuary (THE CULT cover) (03:49)
04. All Apologies (NIRVANA cover) (03:08)
05. Believe It Or Not (The Greatest American Hero theme) (03:29)
06. The Jean Genie (DAVID BOWIE cover) (04:15)
07. Run For Your Life (THE BEATLES cover) (02:41)
08. When Doves (PRINCE cover) (04:41)
09. Tears Of A Clown (SMOKEY ROBINSON & THE MIRACLES cover) (04:00)
10. (03:30)
11. Yankee Rose (DAVID LEE ROTH cover) (04:23)
12. Jealous Guy (JOHN LENNON cover) (04:07)
Bonus Tracks
13. You've Got To Hide Your Love Away [Live On Howard Stern] (02:25)
14. New Thing [Live Unplugged In London] (03:26)

Produced by Chip Z'Nuff, Donnie Vie, Tony Fennel and Vinnie Castaldo

The Band

• Chip Z'Nuff - vocals, bass, guitar
• Donnie Vie - vocals, guitar, piano
• Johnny Monaco - lead guitar, vocals
• Eric Donner - drums

Exact Audio Copy V1.0 beta 3 from 29. August 2011

EAC extraction logfile from 10. November 2014, 22:31

Enuff Z'Nuff / Covered In Gold

Used drive : Optiarc DVD RW AD-7543A Adapter: 0 ID: 1

Read mode : Secure
Utilize accurate stream : Yes
Defeat audio cache : Yes
Make use of C2 pointers : No

Read offset correction : 48
Overread into Lead-In and Lead-Out : No
Fill up missing offset samples with silence : Yes
Delete leading and trailing silent blocks : No
Null samples used in CRC calculations : Yes
Used interface : Native Win32 interface for Win NT & 2000

Used output format : Internal WAV Routines
Sample format : 44.100 Hz; 16 Bit; Stereo


TOC of the extracted CD

Track | Start | Length | Start sector | End sector
---------------------------------------------------------
1 | 0:00.00 | 3:14.70 | 0 | 14619
2 | 3:14.70 | 2:32.01 | 14620 | 26020
3 | 5:46.71 | 3:48.74 | 26021 | 43194
4 | 9:35.70 | 3:08.68 | 43195 | 57362
5 | 12:44.63 | 3:29.20 | 57363 | 73057
6 | 16:14.08 | 4:15.52 | 73058 | 92234
7 | 20:29.60 | 2:41.65 | 92235 | 104374
8 | 23:11.50 | 4:41.43 | 104375 | 125492
9 | 27:53.18 | 4:00.52 | 125493 | 143544
10 | 31:53.70 | 3:30.13 | 143545 | 159307
11 | 35:24.08 | 4:23.26 | 159308 | 179058
12 | 39:47.34 | 4:07.30 | 179059 | 197613
13 | 43:54.64 | 2:25.45 | 197614 | 208533
14 | 46:20.34 | 3:26.51 | 208534 | 224034


Range status and errors

Selected range

Filename D:Enuff Z'Nuff - Covered In Gold.wav

Peak level 98.8 %
Extraction speed 1.9 X
Range quality 100.0 %
Copy CRC 4A56C8DF
Copy OK

No errors occurred

End of status report

==== Log checksum 8D01D6D0AD56AF7CA3EDE125EDD746D10DA685220C724CAFAF7D6A959CDF4531 ====


Many thanks to the original uploader: labanov


















Uploadable

|