Georges Bizet - Les Pecheurs de Perles - Gabriele Ferro (2014)


Georges Bizet - Les Pecheurs de Perles - Gabriele Ferro (2014)
Bluray-rip 720p | AVC, MKV 1280x720 (16:9) 29.97fps, 5305kbps | DTS, 48000Hz, 6ch, 1510kbps | 117 mins | 5.72 GB
Bluray-rip 1080p | AVC, MKV 1920x1080 (16:9) 29.97fps, 15.3Mbps | DTS, 48000Hz, 6ch, 1510kbps | 117 mins | 14.1 GB
Genre: Classical | Audio: French | Subtitles: French (original language), English, German, Spanish, Chinese, Korean

Bizet is more than Carmen. In his opera Les pêcheurs de perles you find melodies to die for and not only the vocal music is beautiful, but also the orchestral and ballet pieces too. The opera includes “Warhorse” romance in every tenor’s repertoire: “Je crois entendre encore”, the tenor-baritone duet “Au fond du temple saint”. The tenor “has the most beautiful romances, some of which are nothing less than exceptional, and able to ensure Bizet’s eternal fame.” (Corriere della sera)

As the priestess Leila, the “excellent” (Corriere del Mezzogiorno) soprano Patrizia Ciofi shines alongside her two suitors Nadir (Dmitry Korchak) and Zurga (Dario Solari) “I have rarely seen a production as beautiful and faithful to the music”, writes Paolo Isotta from“ Il Corriere della sera.


Tracklisting:

Georges Bizet (1838 - 1875)
LES PÊCHEURS DE PERLES (The Pearl Fishers)

Nadir - Dmitry Korchak
Zurga - Dario Solari
Leïla- Patrizia Ciofi
Nourabad - Roberto Tagliavini

San Carlo Theatre Chorus and Orchestra
(chorus master: Salvatore Caputo)
Gabriele Ferro, conductor

Fabio Sparvoli, stage director
Giorgio Ricchelli, set designer
Alessandra Torella, costume designer
Vinicio Cheli, lightning designer
Annarita Pasculli, choreographer

Tracklist:
1 Vorspann 01:42
Les Pêcheurs de Perles
2 Prélude 01:40
3 Sur la grève en feu (1. Akt) 04:05
4 Ainsi, interrompez vos danses 04:07
5 Demeure parmi nous, Nadir 02:18
6 C'est toi, toi qu'enfin je revois 02:43
7 Au fons du temple saint 05:20
8 Que vois-je? 03:35
9 Sois la bienvenue 02:06
10 Seule au milieu de nous... Brahma, divin Brahma! 07:44
11 A cette voix 01:35
12 Je crois entendre encore 04:44
13 Le ciel est bleu! 01:53
14 O Dieu Brahma 06:31
15 L'ombre descend des cieux (2. Akt) 07:47
16 Me voilà seule dans la nuit... comme autrefois 07:33
17 De mon amie fleur endormie 02:01
18 Leïla! Leïla! Dieu puissant 07:34
19 Ah! Revenez à la raison 10:13
20 Entreacte - L'orage s'est calmé... O Nadir (3. Akt 06:54
21 O ciel! Quel trouble 01:10
22 Je frémis, je chancelle 08:55
23 Entends au loin ce bruit de fête 01:46
24 Dés que le soleil 02:11
25 Sombres divinités 03:31
26 O lumiére sainte 01:32
27 Ce somt eux, les voici! 02:19
28 Applaus 01:44
29 Abspann 02:25

• Recorded live at Teatro di San Carlo di Napoli, 2014

Screeshots




Video
ID : 1
Format : AVC
Format/Info : Advanced Video Codec
Format profile : [email protected]
Format settings, CABAC : Yes
Format settings, ReFrames : 3 frames
Codec ID : V_MPEG4/ISO/AVC
Duration : 1h 57mn
Bit rate mode : Variable
Bit rate : 5 305 Kbps
Maximum bit rate : 25.0 Mbps
Width : 1 280 pixels
Height : 720 pixels
Display aspect ratio : 16:9
Frame rate : 29.970 fps
Color space : YUV
Chroma subsampling : 4:2:0
Bit depth : 8 bits
Scan type : Progressive
Bits/(Pixel*Frame) : 0.192
Stream size : 4.36 GiB (76%)
Writing library : x264 core 142 r2479 dd79a61
Encoding settings : cabac=1 / ref=3 / deblock=1:0:0 / analyse=0x3:0x113 / me=hex / subme=7 / psy=1 / psy_rd=1.00:0.00 / mixed_ref=1 / me_range=16 / chroma_me=1 / trellis=1 / 8x8dct=1 / cqm=0 / deadzone=21,11 / fast_pskip=1 / chroma_qp_offset=-2 / threads=12 / lookahead_threads=2 / sliced_threads=0 / nr=0 / decimate=1 / interlaced=0 / bluray_compat=0 / constrained_intra=0 / bframes=3 / b_pyramid=0 / b_adapt=1 / b_bias=0 / direct=1 / weightb=1 / open_gop=0 / weightp=2 / keyint=300 / keyint_min=30 / scenecut=40 / intra_refresh=0 / rc_lookahead=40 / rc=crf / mbtree=1 / crf=18.0 / qcomp=0.60 / qpmin=0 / qpmax=69 / qpstep=4 / vbv_maxrate=25000 / vbv_bufsize=25000 / crf_max=0.0 / nal_hrd=vbr / filler=0 / ip_ratio=1.40 / aq=1:1.00

Audio
ID : 2
Format : DTS
Format/Info : Digital Theater Systems
Codec ID : A_DTS
Duration : 1h 57mn
Bit rate mode : Constant
Bit rate : 1 510 Kbps
Channel(s) : 6 channels
Channel positions : Front: L C R, Side: L R, LFE
Sampling rate : 48.0 KHz
Bit depth : 24 bits
Compression mode : Lossy
Stream size : 1.24 GiB (22%)
Language : French

Text #1
ID : 3
Format : VobSub
Muxing mode : zlib
Codec ID : S_VOBSUB
Codec ID/Info : The same subtitle format used on DVDs
Language : French

Text #2
ID : 4
Format : VobSub
Muxing mode : zlib
Codec ID : S_VOBSUB
Codec ID/Info : The same subtitle format used on DVDs
Language : Spanish

Text #3
ID : 5
Format : VobSub
Muxing mode : zlib
Codec ID : S_VOBSUB
Codec ID/Info : The same subtitle format used on DVDs
Language : Korean

Text #4
ID : 6
Format : VobSub
Muxing mode : zlib
Codec ID : S_VOBSUB
Codec ID/Info : The same subtitle format used on DVDs

Text #5
ID : 7
Format : VobSub
Muxing mode : zlib
Codec ID : S_VOBSUB
Codec ID/Info : The same subtitle format used on DVDs
Language : German

Text #6
ID : 8
Format : VobSub
Muxing mode : zlib
Codec ID : S_VOBSUB
Codec ID/Info : The same subtitle format used on DVDs
Language : English

Menu
00:00:00.000 : en:00:00:00.000
00:01:42.102 : en:00:01:42.102
00:03:22.502 : en:00:03:22.502
00:07:28.014 : en:00:07:28.014
00:11:34.861 : en:00:11:34.861
00:13:52.598 : en:00:13:52.598
00:16:35.361 : en:00:16:35.361
00:21:55.481 : en:00:21:55.481
00:25:31.063 : en:00:25:31.063
00:27:37.155 : en:00:27:37.155
00:35:22.020 : en:00:35:22.020
00:36:56.648 : en:00:36:56.648
00:41:40.732 : en:00:41:40.732
00:43:33.845 : en:00:43:33.845
00:50:05.502 : en:00:50:05.502
00:57:53.136 : en:00:57:53.136
01:05:28.191 : en:01:05:28.191
01:07:27.944 : en:01:07:27.944
01:15:01.931 : en:01:15:01.931
01:25:15.444 : en:01:25:15.444
01:32:09.424 : en:01:32:09.424
01:33:19.394 : en:01:33:19.394
01:42:14.628 : en:01:42:14.628
01:44:01.068 : en:01:44:01.068
01:46:11.865 : en:01:46:11.865
01:49:43.243 : en:01:49:43.243
01:51:15.168 : en:01:51:15.168
01:53:33.807 : en:01:53:33.807
01:55:18.111 : en:01:55:18.111
01:57:42.756 : en:01:57:42.756


Video
ID : 1
Format : AVC
Format/Info : Advanced Video Codec
Format profile : [email protected]
Format settings, CABAC : Yes
Format settings, ReFrames : 3 frames
Codec ID : V_MPEG4/ISO/AVC
Duration : 1h 57mn
Bit rate mode : Variable
Bit rate : 15.3 Mbps
Maximum bit rate : 25.0 Mbps
Width : 1 920 pixels
Height : 1 080 pixels
Display aspect ratio : 16:9
Frame rate : 29.970 fps
Color space : YUV
Chroma subsampling : 4:2:0
Bit depth : 8 bits
Scan type : Progressive
Bits/(Pixel*Frame) : 0.247
Stream size : 12.6 GiB (89%)
Writing library : x264 core 142 r2479 dd79a61
Encoding settings : cabac=1 / ref=3 / deblock=1:0:0 / analyse=0x3:0x113 / me=hex / subme=7 / psy=1 / psy_rd=1.00:0.00 / mixed_ref=1 / me_range=16 / chroma_me=1 / trellis=1 / 8x8dct=1 / cqm=0 / deadzone=21,11 / fast_pskip=1 / chroma_qp_offset=-2 / threads=12 / lookahead_threads=2 / sliced_threads=0 / nr=0 / decimate=1 / interlaced=0 / bluray_compat=0 / constrained_intra=0 / bframes=3 / b_pyramid=0 / b_adapt=1 / b_bias=0 / direct=1 / weightb=1 / open_gop=0 / weightp=2 / keyint=300 / keyint_min=30 / scenecut=40 / intra_refresh=0 / rc_lookahead=40 / rc=crf / mbtree=1 / crf=18.0 / qcomp=0.60 / qpmin=0 / qpmax=69 / qpstep=4 / vbv_maxrate=25000 / vbv_bufsize=25000 / crf_max=0.0 / nal_hrd=vbr / filler=0 / ip_ratio=1.40 / aq=1:1.00

Audio
ID : 2
Format : DTS
Format/Info : Digital Theater Systems
Codec ID : A_DTS
Duration : 1h 57mn
Bit rate mode : Constant
Bit rate : 1 510 Kbps
Channel(s) : 6 channels
Channel positions : Front: L C R, Side: L R, LFE
Sampling rate : 48.0 KHz
Bit depth : 24 bits
Compression mode : Lossy
Stream size : 1.24 GiB (9%)
Language : French

Text #1
ID : 3
Format : VobSub
Muxing mode : zlib
Codec ID : S_VOBSUB
Codec ID/Info : The same subtitle format used on DVDs
Language : French

Text #2
ID : 4
Format : VobSub
Muxing mode : zlib
Codec ID : S_VOBSUB
Codec ID/Info : The same subtitle format used on DVDs
Language : Spanish

Text #3
ID : 5
Format : VobSub
Muxing mode : zlib
Codec ID : S_VOBSUB
Codec ID/Info : The same subtitle format used on DVDs
Language : Korean

Text #4
ID : 6
Format : VobSub
Muxing mode : zlib
Codec ID : S_VOBSUB
Codec ID/Info : The same subtitle format used on DVDs
Language : Chinese

Text #5
ID : 7
Format : VobSub
Muxing mode : zlib
Codec ID : S_VOBSUB
Codec ID/Info : The same subtitle format used on DVDs
Language : German

Text #6
ID : 8
Format : VobSub
Muxing mode : zlib
Codec ID : S_VOBSUB
Codec ID/Info : The same subtitle format used on DVDs
Language : English

Menu
00:00:00.000 : en:00:00:00.000
00:01:42.102 : en:00:01:42.102
00:03:22.502 : en:00:03:22.502
00:07:28.014 : en:00:07:28.014
00:11:34.861 : en:00:11:34.861
00:13:52.598 : en:00:13:52.598
00:16:35.361 : en:00:16:35.361
00:21:55.481 : en:00:21:55.481
00:25:31.063 : en:00:25:31.063
00:27:37.155 : en:00:27:37.155
00:35:22.020 : en:00:35:22.020
00:36:56.648 : en:00:36:56.648
00:41:40.732 : en:00:41:40.732
00:43:33.845 : en:00:43:33.845
00:50:05.502 : en:00:50:05.502
00:57:53.136 : en:00:57:53.136
01:05:28.191 : en:01:05:28.191
01:07:27.944 : en:01:07:27.944
01:15:01.931 : en:01:15:01.931
01:25:15.444 : en:01:25:15.444
01:32:09.424 : en:01:32:09.424
01:33:19.394 : en:01:33:19.394
01:42:14.628 : en:01:42:14.628
01:44:01.068 : en:01:44:01.068
01:46:11.865 : en:01:46:11.865
01:49:43.243 : en:01:49:43.243
01:51:15.168 : en:01:51:15.168
01:53:33.807 : en:01:53:33.807
01:55:18.111 : en:01:55:18.111
01:57:42.756 : en:01:57:42.756


My own rip
Download:

Nitroflare:

720p

http://www.nitroflare.com/view/70B7B178E1D5D58/bizet_720.part01.rar | http://www.nitroflare.com/view/F8B6629F32E53C8/bizet_720.part02.rar | http://www.nitroflare.com/view/677C110AC46C589/bizet_720.part03.rar | http://www.nitroflare.com/view/B83C87E3A3C87F7/bizet_720.part04.rar | http://www.nitroflare.com/view/CCC1F8D5B8B945B/bizet_720.part05.rar | http://www.nitroflare.com/view/F56264450E123C8/bizet_720.part06.rar
http://www.nitroflare.com/view/F5DE12950E2A420/bizet_720.part07.rar | http://www.nitroflare.com/view/EDC6511F734F97D/bizet_720.part08.rar | http://www.nitroflare.com/view/C0E14B14B701746/bizet_720.part09.rar | http://www.nitroflare.com/view/E338DECBA46366B/bizet_720.part10.rar | http://www.nitroflare.com/view/1BA3B80E607BC83/bizet_720.part11.rar | http://www.nitroflare.com/view/6F6921FA7DF633F/bizet_720.part12.rar

1080p

http://www.nitroflare.com/view/DB4E9AEC3EE8CA9/bizet_1080.part01.rar | http://www.nitroflare.com/view/71BAEBCAE64D9E9/bizet_1080.part02.rar | http://www.nitroflare.com/view/D3E3C9FAEBFC8A3/bizet_1080.part03.rar | http://www.nitroflare.com/view/80B9721BAD5C866/bizet_1080.part04.rar | http://www.nitroflare.com/view/1F8852E4E494567/bizet_1080.part05.rar | http://www.nitroflare.com/view/72D53C7D65ECD0B/bizet_1080.part06.rar | http://www.nitroflare.com/view/A37994BDB0BFE91/bizet_1080.part07.rar | http://www.nitroflare.com/view/8D88F5CB6A28D87/bizet_1080.part08.rar | http://www.nitroflare.com/view/6F719507DE6D0AD/bizet_1080.part09.rar | http://www.nitroflare.com/view/AF132AE32402CAE/bizet_1080.part10.rar
http://www.nitroflare.com/view/E551A63114841B5/bizet_1080.part11.rar | http://www.nitroflare.com/view/15DD5A186CBF056/bizet_1080.part12.rar | http://www.nitroflare.com/view/20CA1D4044948BB/bizet_1080.part13.rar | http://www.nitroflare.com/view/912EF30773683C6/bizet_1080.part14.rar | http://www.nitroflare.com/view/B224AC037B8E897/bizet_1080.part15.rar | http://www.nitroflare.com/view/39DD87DB80406B8/bizet_1080.part16.rar | http://www.nitroflare.com/view/A26EC724062DFA6/bizet_1080.part17.rar | http://www.nitroflare.com/view/4F8A92EF40BFBA9/bizet_1080.part18.rar | http://www.nitroflare.com/view/86E9126B6AFF65F/bizet_1080.part19.rar | http://www.nitroflare.com/view/41ED33F4BD92EF3/bizet_1080.part20.rar
http://www.nitroflare.com/view/8E9B8B0CE3878F2/bizet_1080.part21.rar | http://www.nitroflare.com/view/8A071CF86A5A1B6/bizet_1080.part22.rar | http://www.nitroflare.com/view/D7C4C0F794BEF24/bizet_1080.part23.rar | http://www.nitroflare.com/view/0B96C92F5D20A18/bizet_1080.part24.rar | http://www.nitroflare.com/view/EE0327474E3E841/bizet_1080.part25.rar | http://www.nitroflare.com/view/2A8A58599EB2D22/bizet_1080.part26.rar | http://www.nitroflare.com/view/CADAE59648E3103/bizet_1080.part27.rar | http://www.nitroflare.com/view/50D27EBC76BE215/bizet_1080.part28.rar | http://www.nitroflare.com/view/8DB9FB9FC623880/bizet_1080.part29.rar | http://www.nitroflare.com/view/6097A8CFB08A560/bizet_1080.part30.rar

Uploadble:

720p

| | | | |
| | | | |

1080p

| | | | | | | | |
| | | | | | | | |
| | | | | | | | |