Donna McGhee ‎- Make It Last Forever (1978) [2012 Expanded Edition]


Donna McGhee ‎- Make It Last Forever (1978) [2012 Expanded Edition]
EAC Rip | FLAC (Tracks) +CUE, LOG | 475 MB | Covers Included
R&B / Soul | Label: BBR | Catalog Number: CDBBR0118

‘Make It Last Forever’ was originally released in 1978 on Red Greg Records. Donna McGhee’s only solo album was produced by Dance legends Greg Carmichael and Patrick Adams. To this day, the underground disco classic remains in demand with rare mint copies selling for up to £120 on eBay


Do As I Do’ was the album’s first UK single and the B-Side MR BLINDMAN is the albums ultimate disco classic. This song is a regular feature in many DJ’s sets today as well as appearing on numerous compilation albums of the genres classics.’It Ain’t No Big Thing’ tore up dance floors across the states becoming a staple in DJ’s set lists at clubs like Paradise Garage, Better Days, The Loft and Studio 54.’I’m A Love Bug’ was nominated for a Grammy and was also re-recorded by Bumblebee Unlimited with Donna providing vocals.Donna McGhee is a talented Funk and Disco singer hailing from Brooklyn, New York. She got her first break singing with The Fatback Band in the early seventies for three years, during which time they toured with the likes of Teddy Pendergrass, Crown Heights Affair and Chaka Khan.


Donna McGhee is an amazingly talented Funk and Disco singer hailing from Brooklyn, New York. She got her first break singing with The Fatback Band. Over the three years Donna was with The Fatback Band they toured with the likes of Teddy Pendergrass, Crown Heights Affair and Chaka Khan.
MAKE IT LAST FOREVER is Donna’s debut solo album after signing to the disco label Red Greg in 1977. Released in 1978 this Greg Carmichael and Patrick Adams (legendary producer of countless 70’s classics) produced album is a disco classic that is much in demand by aficionados across the world with copies going for over £70 on ebay.
DO AS I DO was the albums first single and the B-Side MR BLINDMAN is the albums ultimate disco classic. This song is a regular feature in many DJ’s sets today as well as appearing on numerous compilation albums of the genres classics.
IT AIN’T NO BIG THING tore up dance floors across the states becoming a staple in DJ’s set lists at Studio 54.
I’M A LOVE BUG was nominated for a Grammy and was also re-recorded by Bumblebee Unlimited with Donna providing vocals, this version is a cult classic.
Press:-
"Before embarking on her solo career, Donna McGhee got her first break singing with The Fatback Band. Later, she found herself touring with Chaka Khan, Crown Heights Affair and Teddy Pendergrass. By 1977, Donna found herself signed to the disco label Red Greg Records, releasing Make it Last Forever in 1978. Produced by the Greg Carmichael and Patrick Adams, Make it Last Forever is a true disco classic, with copies changing hands for upwards of $100.”


Exact Audio Copy V1.0 beta 3 from 29. August 2011

EAC extraction logfile from 7. January 2015, 13:03

Donna McGhee / Make It Last Forever

Used drive : ATAPI DVD A DH16A6L-C Adapter: 2 ID: 0

Read mode : Secure
Utilize accurate stream : Yes
Defeat audio cache : Yes
Make use of C2 pointers : No

Read offset correction : 6
Overread into Lead-In and Lead-Out : No
Fill up missing offset samples with silence : Yes
Delete leading and trailing silent blocks : No
Null samples used in CRC calculations : Yes
Used interface : Native Win32 interface for Win NT & 2000
Gap handling : Appended to previous track

Used output format : User Defined Encoder
Selected bitrate : 1024 kBit/s
Quality : High
Add ID3 tag : No
Command line compressor : C:Program FilesFLACflac.exe
Additional command line options : -8 -V -T "ARTIST=%artist%" -T "TITLE=%title%" -T "ALBUM=%albumtitle%" -T "DATE=%year%" -T "TRACKNUMBER=%tracknr%" -T "GENRE=%genre%" -T "PERFORMER=%albuminterpret%" -T "COMPOSER=%composer%" %haslyrics%--tag-from-file=LYRICS="%lyricsfile%"%haslyrics% -T "ALBUMARTIST=%albumartist%" -T "DISCNUMBER=%cdnumber%" -T "TOTALDISCS=%totalcds%" -T "TOTALTRACKS=%numtracks%" -T "COMMENT=%comment%" %source% -o %dest%


TOC of the extracted CD

Track | Start | Length | Start sector | End sector
---------------------------------------------------------
1 | 0:00.00 | 8:26.29 | 0 | 37978
2 | 8:26.29 | 10:20.57 | 37979 | 84535
3 | 18:47.11 | 6:44.51 | 84536 | 114886
4 | 25:31.62 | 5:14.24 | 114887 | 138460
5 | 30:46.11 | 4:32.06 | 138461 | 158866
6 | 35:18.17 | 6:09.07 | 158867 | 186548
7 | 41:27.24 | 3:11.13 | 186549 | 200886
8 | 44:38.37 | 3:11.15 | 200887 | 215226


Track 1

Filename F:!!!!!POST!!!!Donna McGhee ‎- Make It Last Forever (1978) [2012 Expanded Edition]1 - Make It Last Forever.wav

Pre-gap length 0:00:02.00

Peak level 96.6 %
Extraction speed 3.9 X
Track quality 100.0 %
Test CRC DCC493EF
Copy CRC DCC493EF
Accurately ripped (confidence 4) [E607A349] (AR v2)
Copy OK

Track 2

Filename F:!!!!!POST!!!!Donna McGhee ‎- Make It Last Forever (1978) [2012 Expanded Edition]2 - Do As I Do.wav

Pre-gap length 0:00:01.41

Peak level 96.6 %
Extraction speed 4.9 X
Track quality 100.0 %
Test CRC 1216A804
Copy CRC 1216A804
Accurately ripped (confidence 4) [7499C7F3] (AR v2)
Copy OK

Track 3

Filename F:!!!!!POST!!!!Donna McGhee ‎- Make It Last Forever (1978) [2012 Expanded Edition]3 - It Ain't No Big Thing.wav

Pre-gap length 0:00:01.34

Peak level 96.6 %
Extraction speed 4.7 X
Track quality 99.9 %
Test CRC 119EDA68
Copy CRC 119EDA68
Accurately ripped (confidence 4) [ABA04428] (AR v2)
Copy OK

Track 4

Filename F:!!!!!POST!!!!Donna McGhee ‎- Make It Last Forever (1978) [2012 Expanded Edition]4 - Mr Blindman.wav

Pre-gap length 0:00:01.10

Peak level 96.6 %
Extraction speed 5.5 X
Track quality 100.0 %
Test CRC ECAF2BD8
Copy CRC ECAF2BD8
Accurately ripped (confidence 4) [5F3C77EA] (AR v2)
Copy OK

Track 5

Filename F:!!!!!POST!!!!Donna McGhee ‎- Make It Last Forever (1978) [2012 Expanded Edition]5 - I'm A Love Bug.wav

Pre-gap length 0:00:01.26

Peak level 96.6 %
Extraction speed 5.7 X
Track quality 100.0 %
Test CRC 61A078D6
Copy CRC 61A078D6
Accurately ripped (confidence 4) [EDE77A9F] (AR v2)
Copy OK

Track 6

Filename F:!!!!!POST!!!!Donna McGhee ‎- Make It Last Forever (1978) [2012 Expanded Edition]6 - It Ain't No Big Thing (Danny Krivit Re-Edit).wav

Pre-gap length 0:00:02.47

Peak level 96.6 %
Extraction speed 6.2 X
Track quality 100.0 %
Test CRC 1794FC77
Copy CRC 1794FC77
Accurately ripped (confidence 4) [7B46966C] (AR v2)
Copy OK

Track 7

Filename F:!!!!!POST!!!!Donna McGhee ‎- Make It Last Forever (1978) [2012 Expanded Edition]7 - Make It Last Forever (Single Version).wav

Pre-gap length 0:00:02.02

Peak level 96.6 %
Extraction speed 5.9 X
Track quality 100.0 %
Test CRC 33BDA5EF
Copy CRC 33BDA5EF
Accurately ripped (confidence 4) [01F660B1] (AR v2)
Copy OK

Track 8

Filename F:!!!!!POST!!!!Donna McGhee ‎- Make It Last Forever (1978) [2012 Expanded Edition]8 - It Ain't No Big Thing (Single Version).wav

Pre-gap length 0:00:01.26

Peak level 96.6 %
Extraction speed 6.1 X
Track quality 100.0 %
Test CRC 867305B5
Copy CRC 867305B5
Accurately ripped (confidence 4) [8832AA21] (AR v2)
Copy OK


All tracks accurately ripped

No errors occurred

End of status report

==== Log checksum 4822ED4B3FC9E5421E74BDA6CE1CEABDE037370B9D337B77F33078A547C91842 ====


Tracklist:
1. MAKE IT LAST FOREVER
2. DO AS I DO
3. IT AIN’T NO BIG THING
4. MR. BLINDMAN
5. I’M A LOVE BUG
6. IT AIN'T NO BIG THING (Danny krivit re-edit)
7. MAKE IT LAST FOREVER (Single version)
8. IT AIN'T NO BIG THING (Single version)


Password: www.AvaxHome.ws