Вход в свой аккаунт

Или войдите через соц. сети

Living in a Box - Living in a Box (1987) [Japanese Press]


Living in a Box - Living in a Box (1987) [Japanese Press]
EAC | FLAC | Image (Cue&Log) ~ 317 Mb (incl 5%) | Mp3 (CBR320) ~ 110 Mb (incl 5%) | Scans ~ 142 Mb
Genre: Sophisti-Pop, New Wave, Synthpop | Label: Chrysalis | # CP32-5475 (CCD 1547) | Time: 00:45:57

“ Living in a Box is the eponymous debut album from British pop group Living in a Box. It was released on Chrysalis Records in 1987, and features their biggest U.S. hit, the self-titled single, which reached a peak of number 17 that year. ”


“ If Duran Duran was a mix of Chic and Roxy, then Living in a Box was a new romantic band (minus the makeup) with a collection of soul and funk records (and sharp suits). Their first album is a fast-paced affair mostly dated now due to Marcus Vere's overly '80s keyboard sounds. Aside from the abysmal "Going for the Big One," which should never have seen the outside of the studio, there are still some good examples of post new romantic mid-'80s funk. The first four -- comprising the title track, "Love Is the Art," "So the Story Goes," and the ballad "From Beginning to End" -- all hold up reasonably well, and strangely enough sounded like they'd been around for years even at the time (particularly "Story," in that the keyboards are kept to a minimal ambient wash with Richard Darbyshire's husky vocals to the front). Also worth noting are "Scales of Justice" and "Can't Stop the Wheel," which proved their capabilities to further heights in the Steely Dan/Michael McDonald vein. A pity that "Ecstasy" (wasted as a B-side) and the 7" versions of "Love Is the Art" and "So the Story Goes" with Bobby Womack are missing in action, though.

Review by Kelvin Hayes, Allmusic.com
”







Tracklist:

01. Living In A Box (03:06)
02. Love Is The Art (03:45)
03. So The Story Goes (04:22)
04. From Beginning To End (04:05)
05. Generate The Wave (04:51)
06. Superheroes (03:58)
07. Scales Of Justice (04:25)
08. Going For The Big One (03:37)
09. Human Story (04:15)
10. Can't Stop The Wheel (05:20)
11. Living In A Box (Reprise: The Penthouse Mix) (04:10)


Exact Audio Copy V0.99 prebeta 5 from 4. May 2009

EAC extraction logfile from 11. February 2010, 22:27

Living In A Box / Living In A Box

Used drive : ASUS DRW-1608P Adapter: 2 ID: 1

Read mode : Secure
Utilize accurate stream : Yes
Defeat audio cache : Yes
Make use of C2 pointers : No

Read offset correction : 48
Overread into Lead-In and Lead-Out : No
Fill up missing offset samples with silence : Yes
Delete leading and trailing silent blocks : No
Null samples used in CRC calculations : Yes
Used interface : Installed external ASPI interface

Used output format : User Defined Encoder
Selected bitrate : 1024 kBit/s
Quality : High
Add ID3 tag : No
Command line compressor : C:Program Files (x86)Exact Audio CopyFlacflac.exe
Additional command line options : -5 -V -T "ARTIST=%a" -T "TITLE=%t" -T "ALBUM=%g" -T "DATE=%y" -T "TRACKNUMBER=%n" -T "GENRE=%m" -T "COMMENT=EAC FLAC -5" %s


TOC of the extracted CD

Track | Start | Length | Start sector | End sector
---------------------------------------------------------
1 | 0:00.00 | 3:06.45 | 0 | 13994
2 | 3:06.45 | 3:45.72 | 13995 | 30941
3 | 6:52.42 | 4:22.15 | 30942 | 50606
4 | 11:14.57 | 4:05.03 | 50607 | 68984
5 | 15:19.60 | 4:51.37 | 68985 | 90846
6 | 20:11.22 | 3:58.13 | 90847 | 108709
7 | 24:09.35 | 4:25.00 | 108710 | 128584
8 | 28:34.35 | 3:37.07 | 128585 | 144866
9 | 32:11.42 | 4:15.18 | 144867 | 164009
10 | 36:26.60 | 5:20.20 | 164010 | 188029
11 | 41:47.05 | 4:10.37 | 188030 | 206816


Range status and errors

Selected range

Filename F:Living In A Box - 1987 (Japan)Living In A Box - Living In A Box.wav

Peak level 100.0 %
Range quality 100.0 %
Test CRC F026E9F8
Copy CRC F026E9F8
Copy OK

No errors occurred


AccurateRip summary

Track 1 not present in database
Track 2 not present in database
Track 3 not present in database
Track 4 not present in database
Track 5 not present in database
Track 6 not present in database
Track 7 not present in database
Track 8 not present in database
Track 9 not present in database
Track 10 not present in database
Track 11 not present in database

None of the tracks are present in the AccurateRip database

End of status report

[CUETools log; Date: 14.01.2015 14:28:03; Version: 2.1.4]
[CTDB TOCID: Os3uMcxleBQmcJmurSXq3vTnMKw-] found.
Track | CTDB Status
1 | (2/2) Accurately ripped
2 | (2/2) Accurately ripped
3 | (2/2) Accurately ripped
4 | (2/2) Accurately ripped
5 | (2/2) Accurately ripped
6 | (2/2) Accurately ripped
7 | (2/2) Accurately ripped
8 | (2/2) Accurately ripped
9 | (2/2) Accurately ripped
10 | (2/2) Accurately ripped
11 | (2/2) Accurately ripped
[AccurateRip ID: 0012416b-00a02bab-8f0ac50b] found.
Track [ CRC | V2 ] Status
01 [78b10600|8d7688ed] (0+2/2) Accurately ripped
02 [334fecfb|0c4129c2] (0+2/2) Accurately ripped
03 [d7fda86e|87624de2] (0+2/2) Accurately ripped
04 [7b8d19d8|5d4b30b3] (0+2/2) Accurately ripped
05 [be8144f9|205218fb] (0+2/2) Accurately ripped
06 [7a8ec380|2d08441b] (0+2/2) Accurately ripped
07 [50451d23|488eb3d1] (0+2/2) Accurately ripped
08 [f6caf5eb|a8d1d9e9] (0+2/2) Accurately ripped
09 [db1cb3e1|74ad9f1c] (0+2/2) Accurately ripped
10 [0f481cdc|d42f8028] (0+2/2) Accurately ripped
11 [9c5d2b91|d7885777] (0+2/2) Accurately ripped

Track Peak [ CRC32 ] [W/O NULL] [ LOG ]
-- 100,0 [F026E9F8] [548E5CDA] CRC32
01 99,8 [F2189EF7] [36AB222A]
02 97,6 [3E7175C9] [520E27AB]
03 100,0 [D210C561] [182194FD]
04 100,0 [06303696] [222F2C80]
05 100,0 [1AA8FD7E] [24FDE201]
06 86,9 [22743FF6] [00D378ED]
07 97,0 [D66B2E88] [22A581C0]
08 100,0 [C645240D] [B0959A08]
09 100,0 [2A8B7BA0] [B05A3329]
10 100,0 [0612A75C] [856F5BF9]
11 100,0 [53120702] [487CBAAA]

foobar2000 1.2 / Dynamic Range Meter 1.1.1
log date: 2015-01-14 13:28:37

--------------------------------------------------------------------------------
Analyzed: Living In A Box / Living In A Box
--------------------------------------------------------------------------------

DR Peak RMS Duration Track
--------------------------------------------------------------------------------
DR14 -0.01 dB -16.11 dB 3:07 01-Living In A Box
DR13 -0.20 dB -16.05 dB 3:46 02-Love Is The Art
DR14 0.00 dB -15.47 dB 4:22 03-So The Story Goes
DR13 0.00 dB -16.14 dB 4:05 04-From Beginning To End
DR14 0.00 dB -15.87 dB 4:51 05-Generate The Wave
DR14 -1.22 dB -16.73 dB 3:58 06-Superheroes
DR13 -0.26 dB -15.04 dB 4:25 07-Scales Of Justice
DR15 0.00 dB -16.01 dB 3:37 08-Going For The Big One
DR16 0.00 dB -17.45 dB 4:15 09-Human Story
DR14 0.00 dB -16.29 dB 5:20 10-Can't Stop The Wheel
DR14 0.00 dB -15.85 dB 4:10 11-Living In A Box (Reprise: The Penthouse Mix)
--------------------------------------------------------------------------------

Number of tracks: 11
Official DR value: DR14

Samplerate: 44100 Hz
Channels: 2
Bits per sample: 16
Bitrate: 921 kbps
Codec: FLAC
================================================================================



All thanks to original releaser - bvstudio





Password: designol