The Atomic Fireballs - Birth Of The Swerve (1998) + Torch This Place (1999) [2CD]


The Atomic Fireballs - Birth Of The Swerve (1998) + Torch This Place (1999)
EAC | FLAC | Image (Cue&Log) ~ 613 Mb | Mp3 (CBR320) ~ 253 Mb
Genre: Retro Swing, Rock & Roll | Time: 01:07:36 | Scans included

The Atomic Fireballs were formed in Detroit in 1996 by John Bunkley and James Bostek. The two of them met when Bostek's wife was working with Bunkley and introduced them. Although the group plays their own brand of high-energy swing music, they list their influences to be as far ranging as Louis Jordan and Black Flag. The lineup of the group is Bostek on trumpet, Bunkley on vocals, Tony Buccilli playing trombone, Duke Kingins on guitar, Shawn Scaggs on double bass, Eric Schabo wailing tenor sax, and Randy Sly on piano. Their first album was the self-released Birth of the Swerve (1998). The album was good enough to garner the interest of major labels. That meant that the follow-up, 1999's Torch This Place, was not an independent release but rather on Atlantic.

Gary Hill, Allmusic.com






---------------------------------------------------------------------------------



The Atomic Fireballs - Birth Of The Swerve (1998)
EAC | FLAC | Image (Cue&Log) ~ 243 Mb | Mp3 (CBR320) ~ 108 Mb
Label: Orbital Records | # 134078 P/N 06980294 | Time: 00:28:03 | Scans included

This cd is flawless for fans of bands like Big Bad Voodoo Daddy, Cherry Poppin Daddies, Cab Calloway, etc. 8 orginal tracks wich "most " songs wound up on their follow up cd minus a few songs. The most popylar by far is "Man with Hex" giving a swing beat with the theme of the movie Labyrinth with David Bowie's rendition of "Dance Magic Dance". The songs flow right into eachother with fast pased swing with songs like Spanish Fly, Catfish Ball and the perfect end to the cd with "devil is Dancing" This cd is long out of print and hard to find, if you dont own it already, get while you still can!

DAN CARROLL, Amazon.com


Tracklist:

01. Man With The Hex (03:15)
02. Spanish Fly (03:29)
03. Mata Hari (03:15)
04. Spider Baby (03:50)
05. Caviar & Chitlins (02:51)
06. Starve A Fever (03:21)
07. Catfish Ball (04:40)
08. Devil Is Dancing (03:18)


Exact Audio Copy V1.0 beta 4 from 7. December 2014

Отчёт EAC об извлечении, выполненном 28. декабря 2014, 20:22

The Atomic Fireballs / Birth Of The Swerve

Дисковод: SONY CD-RW CRX230ED Adapter: 1 ID: 0

Режим чтения : Достоверность
Использование точного потока : Да
Отключение кэша аудио : Да
Использование указателей C2 : Нет

Коррекция смещения при чтении : 6
Способность читать области Lead-in и Lead-out : Нет
Заполнение пропущенных сэмплов тишиной : Да
Удаление блоков с тишиной в начале и конце : Нет
При вычислениях CRC использовались нулевые сэмплы : Да
Интерфейс : Встроенный Win32-интерфейс для Win NT/2000

Выходной формат : Внутренние WAV-операции
Формат сэмплов : 44.100 Гц; 16 бит; стерео


TOC извлечённого CD

Трек | Старт | Длительность | Начальный сектор | Конечный сектор
---------------------------------------------------------------------
1 | 0:00.00 | 3:15.05 | 0 | 14629
2 | 3:15.05 | 3:29.06 | 14630 | 30310
3 | 6:44.11 | 3:15.69 | 30311 | 45004
4 | 10:00.05 | 3:50.12 | 45005 | 62266
5 | 13:50.17 | 2:51.59 | 62267 | 75150
6 | 16:42.01 | 3:21.70 | 75151 | 90295
7 | 20:03.71 | 4:40.02 | 90296 | 111297
8 | 24:43.73 | 3:18.70 | 111298 | 126217


Характеристики диапазона извлечения и сообщения об ошибках

Выбранный диапазон

Имя файла F:MusicCDTorrentThe Atomic Fireballs - Birth Of The SwerveThe Atomic Fireballs - Birth Of The Swerve.wav

Пиковый уровень 100.0 %
Скорость извлечения 6.2 X
Качество диапазона 99.9 %
CRC теста F3DF9795
CRC копии F3DF9795
Копирование... OK

Ошибок не произошло


AccurateRip: сводка

Трек 1 : извлечено точно (доверие 5) [93D1FCC6] (AR v1)
Трек 2 : извлечено точно (доверие 5) [D4A8FB5D] (AR v1)
Трек 3 : извлечено точно (доверие 5) [5D4403E2] (AR v1)
Трек 4 : извлечено точно (доверие 5) [D285F079] (AR v1)
Трек 5 : извлечено точно (доверие 5) [5FFE5B32] (AR v1)
Трек 6 : извлечено точно (доверие 5) [1DB70F7D] (AR v1)
Трек 7 : извлечено точно (доверие 5) [37AA32BA] (AR v1)
Трек 8 : извлечено точно (доверие 5) [F629B4D0] (AR v1)

Все треки извлечены точно

Конец отчёта

---- CUETools DB Plugin V2.1.4

[CTDB TOCID: Js7wDHqFEEezzBHPHNn5JeVJliA-] found
Submit result: Js7wDHqFEEezzBHPHNn5JeVJliA- has been confirmed
Track | CTDB Status
1 | (1/1) Accurately ripped
2 | (1/1) Accurately ripped
3 | (1/1) Accurately ripped
4 | (1/1) Accurately ripped
5 | (1/1) Accurately ripped
6 | (1/1) Accurately ripped
7 | (1/1) Accurately ripped
8 | (1/1) Accurately ripped


==== Контрольная сумма отчёта 6B1C48D8B99A9EF304D7AAF45CAA5574E73C4EBED1A83D245234F6F4D4FCBD4D ====

foobar2000 1.2 / Dynamic Range Meter 1.1.1
log date: 2015-01-15 00:09:39

--------------------------------------------------------------------------------
Analyzed: The Atomic Fireballs / Birth Of The Swerve
--------------------------------------------------------------------------------

DR Peak RMS Duration Track
--------------------------------------------------------------------------------
DR9 0.00 dB -9.90 dB 3:15 01-Man With The Hex
DR8 0.00 dB -9.26 dB 3:29 02-Spanish Fly
DR7 0.00 dB -8.56 dB 3:16 03-Mata Hari
DR9 0.00 dB -10.56 dB 3:50 04-Spider Baby
DR9 0.00 dB -9.84 dB 2:52 05-Caviar & Chitlins
DR9 0.00 dB -10.82 dB 3:22 06-Starve A Fever
DR9 0.00 dB -9.81 dB 4:40 07-Catfish Ball
DR9 0.00 dB -10.26 dB 3:19 08-Devil Is Dancing
--------------------------------------------------------------------------------

Number of tracks: 8
Official DR value: DR9

Samplerate: 44100 Hz
Channels: 2
Bits per sample: 16
Bitrate: 960 kbps
Codec: FLAC
================================================================================


---------------------------------------------------------------------------------



The Atomic Fireballs - Torch This Place (1999)
EAC | FLAC | Image (Cue&Log) ~ 370 Mb | Mp3 (CBR320) ~ 145 Mb
Label: Lava / Atlantic | # 83167-2 | Time: 00:39:33 | Scans included

Detroit's Atomic Fireballs bring a fresh attitude to swing on their debut album Torch This Place. Tracks like "Man with the Hex," "Mata Hari" and "Starve a Fever" have a driven energy that shows why the group won many new fans on the 1998 Vans Warped Tour. Torch This Place is powerful fun for anyone into the new swing scene.

Heather Phares, Allmusic.com


Tracklist:

01. Man With The Hex (03:01)
02. Mata Hari (03:44)
03. Swing Sweet Pussycat (03:11)
04. Caviar & Chitlins (02:46)
05. Lover Lies (03:19)
06. Spanish Fly (03:28)
07. Pango Pango (03:37)
08. Hit By A Brick (04:09)
09. Calypso King (02:45)
10. Drink Drank Drunk (02:56)
11. Flowers In The Sand (02:44)
12. Starve A Fever (03:45)


Exact Audio Copy V1.0 beta 4 from 7. December 2014

Отчёт EAC об извлечении, выполненном 28. декабря 2014, 21:14

The Atomic Fireballs / Torch This Place

Дисковод: SONY CD-RW CRX230ED Adapter: 1 ID: 0

Режим чтения : Достоверность
Использование точного потока : Да
Отключение кэша аудио : Да
Использование указателей C2 : Нет

Коррекция смещения при чтении : 6
Способность читать области Lead-in и Lead-out : Нет
Заполнение пропущенных сэмплов тишиной : Да
Удаление блоков с тишиной в начале и конце : Нет
При вычислениях CRC использовались нулевые сэмплы : Да
Интерфейс : Встроенный Win32-интерфейс для Win NT/2000

Выходной формат : Внутренние WAV-операции
Формат сэмплов : 44.100 Гц; 16 бит; стерео


TOC извлечённого CD

Трек | Старт | Длительность | Начальный сектор | Конечный сектор
---------------------------------------------------------------------
1 | 0:00.32 | 3:01.43 | 32 | 13649
2 | 3:02.00 | 3:44.47 | 13650 | 30496
3 | 6:46.47 | 3:11.50 | 30497 | 44871
4 | 9:58.22 | 2:46.73 | 44872 | 57394
5 | 12:45.20 | 3:19.32 | 57395 | 72351
6 | 16:04.52 | 3:28.53 | 72352 | 88004
7 | 19:33.30 | 3:37.67 | 88005 | 104346
8 | 23:11.22 | 4:09.60 | 104347 | 123081
9 | 27:21.07 | 2:45.13 | 123082 | 135469
10 | 30:06.20 | 2:56.70 | 135470 | 148739
11 | 33:03.15 | 2:44.17 | 148740 | 161056
12 | 35:47.32 | 3:45.65 | 161057 | 177996


Характеристики диапазона извлечения и сообщения об ошибках

Выбранный диапазон

Имя файла F:MusicCDTorrentThe Atomic Fireballs - Torch This PlaceThe Atomic Fireballs - Torch This Place.wav

Пиковый уровень 100.0 %
Скорость извлечения 5.4 X
Качество диапазона 100.0 %
CRC теста 6077AF4B
CRC копии 6077AF4B
Копирование... OK

Ошибок не произошло


AccurateRip: сводка

Трек 1 : извлечено точно (доверие 8) [DF1979AE] (AR v2)
Трек 2 : извлечено точно (доверие 9) [EC328236] (AR v2)
Трек 3 : извлечено точно (доверие 8) [F1CA4277] (AR v2)
Трек 4 : извлечено точно (доверие 8) [DA11CBF9] (AR v2)
Трек 5 : извлечено точно (доверие 8) [45E873ED] (AR v2)
Трек 6 : извлечено точно (доверие 9) [567B6659] (AR v2)
Трек 7 : извлечено точно (доверие 9) [2846C88B] (AR v2)
Трек 8 : извлечено точно (доверие 9) [D7196BC2] (AR v2)
Трек 9 : извлечено точно (доверие 9) [40163832] (AR v2)
Трек 10 : извлечено точно (доверие 9) [7D6A67E1] (AR v2)
Трек 11 : извлечено точно (доверие 9) [48569664] (AR v2)
Трек 12 : извлечено точно (доверие 8) [285686DF] (AR v2)

Все треки извлечены точно

Конец отчёта

---- CUETools DB Plugin V2.1.4

[CTDB TOCID: p4n5n_DlRfXlSy8iFherMzPBFzk-] disk not present in database
Submit result: p4n5n_DlRfXlSy8iFherMzPBFzk- has been uploaded


==== Контрольная сумма отчёта F6A987598DEBEE87C8E68A9EEE40E160552093EC929CAC23634A39A60F489E8C ====

foobar2000 1.2 / Dynamic Range Meter 1.1.1
log date: 2015-01-15 00:09:51

--------------------------------------------------------------------------------
Analyzed: The Atomic Fireballs / Torch This Place
--------------------------------------------------------------------------------

DR Peak RMS Duration Track
--------------------------------------------------------------------------------
DR5 0.00 dB -6.52 dB 3:02 01-Man With The Hex
DR5 0.00 dB -6.53 dB 3:45 02-Mata Hari
DR6 0.00 dB -6.99 dB 3:12 03-Swing Sweet Pussycat
DR5 0.00 dB -6.74 dB 2:47 04-Caviar & Chitlins
DR6 0.00 dB -8.98 dB 3:19 05-Lover Lies
DR5 0.00 dB -6.62 dB 3:29 06-Spanish Fly
DR6 0.00 dB -7.30 dB 3:38 07-Pango Pango
DR6 0.00 dB -8.69 dB 4:10 08-Hit By A Brick
DR6 0.00 dB -7.39 dB 2:45 09-Calypso King
DR6 0.00 dB -7.07 dB 2:57 10-Drink Drank Drunk
DR6 0.00 dB -7.07 dB 2:44 11-Flowers In The Sand
DR6 0.00 dB -8.22 dB 3:46 12-Starve A Fever
--------------------------------------------------------------------------------

Number of tracks: 12
Official DR value: DR6

Samplerate: 44100 Hz
Channels: 2
Bits per sample: 16
Bitrate: 1077 kbps
Codec: FLAC
================================================================================


---------------------------------------------------------------------------------


All thanks to original releaser - squirr





Password: designol