Вход в свой аккаунт

Или войдите через соц. сети

Shane Fenton And The Fentones - The Complete A-Sides And B-Sides (2003)


Shane Fenton & The Fentones - The Complete A-Sides And B-Sides (2003)
EAC Rip | FLAC Tracks + Cue + Log - 174 MB | MP3 CBR @320 kbps - 119 MB | Full scans - 116 MB
Label: EMI Gold | Catalog.#: 7243 5 83774 2 2 | Genre: Rock & Roll, Rockabilly

“ Johnny Theakstone is the forgotten man of early British rock & roll. Many others vie for the title, but none of them even come close. Dead before his 17th birthday, unknown and therefore publicly unmourned, Theakstone would nevertheless live on when his group, Shane Fenton & the Fentones, persuaded roadie Bernard Jewry to slip into the title role to help them through a crisis -- and then he was born again a decade later, when Jewry reinvented himself as glam rocker Alvin Stardust.

Originally named Johnny Theakstone & the Tremolos, the band lined up as Theakstone (vocals), Gerry Wilcox (guitar), Mick Hay (rhythm guitar), future Hollies drummer Bobby Elliott, and a bassist remembered only as Bonny; they changed their name in late 1960 when, having recorded an audition tape to mail to the BBC's Saturday Club pop show, Theakstone decided they needed a name change. Adopting "Shane" from the writing credits of a recent Gene Vincent single, and "Fenton" from a garage he passed on the way home from a gig, the newly named Shane Fenton & the Fentones dropped their precious tape in the post, and waited. They were still awaiting a reply when Theakstone died, a consequence of the rheumatic fever he suffered as a child. The band intended folding, but when the BBC invited the band to London for a studio test, Theakstone's mother asked them to continue as a tribute to her son, her one request being that they retain the old band name. Jewry became Shane Fenton that same afternoon.


Early in 1961, the newly reconstituted Shane Fenton & the Fentones sailed through the audition; the show's MC, Tommy Sanderson, became their manager and, by the end of the week, he'd landed them a deal with EMI. September 1961 saw the band release its debut single, "I'm a Moody Guy," and on October 3rd they were introduced to the media at the Center of Sound in central London. They made their television debut on Thank Your Lucky Stars, and the record peaked at number 19.

Through early 1962, Shane Fenton & the Fentones joined one of Larry Parnes' package tours, sharing the bill with Billy Fury & the Tornadoes, Karl Denver, and Peter Jay. But though their live show went over well, three successive singles passed by unnoticed: "Walk Away" and "It's All Over Now" for the full group, and the instrumental "Lover's Guitar" by the Fentones alone. June brought a respite within this gathering gloom, when "Cindy's Birthday" returned the band to the upper echelons of the chart. But then it was back to square one as "Too Young for Sad Memories" and "I Ain't Got Nobody" sunk into oblivion, to be joined by another of the Fentones' instrumental efforts, "The Breeze and I."


A second Parnes tour in early 1963 found the band at the bottom of the bill and, in April 1963, Shane Fenton & the Fentones broke up. Fenton went solo, but further 45s "A Fool's Paradise" and "Don't Do That" sank and, for a time, he moved into management, linking with Tommy Sanderson to oversee Bobby Elliott's new band, the Hollies. The following year he was performing again, teaming with his wife, Iris Caldwell (sister of Rory Storm), as Shane Fenton & Iris, playing the cabaret clubs of northern England. And when 1972 brought him a brand new record deal, he'd been Shane Fenton for so many years he didn't even think about finding another name. However, his manager, Hal Carter, did -- and a year or so later, as the singer's new single, "My Coo Ca Choo," awaited its release, he unveiled the new alias. He has been Alvin Stardust ever since.

”

Track Listing:

01. Shane Fenton & The Fentones - I'm A Moody Guy - 02:40
02. Shane Fenton & The Fentones - Five Foot Two, Eyes Of Blue - 02:14
03. Shane Fenton & The Fentones - Walk Away - 02:26
04. Shane Fenton & The Fentones - Fallen Leaves On The Ground - 02:17
05. Shane Fenton & The Fentones - It's All Over Now - 02:21
06. Shane Fenton & The Fentones - Why Little Girl - 02:11
07. Shane Fenton & The Fentones - Cindy's Birthday - 01:52
08. Shane Fenton & The Fentones - It's Gonna Take Magic - 01:57
09. Shane Fenton & The Fentones - Too Young For Sad Memories - 02:34
10. Shane Fenton & The Fentones - You're Telling Me - 02:04
11. Shane Fenton & The Fentones - I Ain't Got Nobody - 02:29
12. Shane Fenton & The Fentones - Hey Miss Ruby - 02:13
13. Shane Fenton & The Fentones - A Fool's Paradise - 02:25
14. Shane Fenton & The Fentones - You Need Love - 01:51
15. Shane Fenton & The Fentones - Don't Do That - 02:09
16. Shane Fenton & The Fentones - I'll Know - 02:36
17. Shane Fenton & The Fentones - Hey Lulu - 02:02
18. Shane Fenton & The Fentones - I Do, Do You - 02:02
19. The Fentones - The Mexican - 02:34
20. The Fentones - Lover's Guitar - 01:59
21. The Fentones - The Breeze And I - 02:32
22. The Fentones - Just For Jerry - 02:43


Exact Audio Copy V1.0 beta 3 from 29. August 2011

EAC extraction logfile from 6. January 2015, 21:19

Shane Fenton & The Fentones / The Complete A-Sides And B-Sides

Used drive : Optiarc DVD RW AD-7280S Adapter: 3 ID: 0

Read mode : Secure
Utilize accurate stream : Yes
Defeat audio cache : Yes
Make use of C2 pointers : No

Read offset correction : 48
Overread into Lead-In and Lead-Out : No
Fill up missing offset samples with silence : Yes
Delete leading and trailing silent blocks : No
Null samples used in CRC calculations : Yes
Used interface : Native Win32 interface for Win NT & 2000
Gap handling : Appended to previous track

Used output format : User Defined Encoder
Selected bitrate : 768 kBit/s
Quality : High
Add ID3 tag : No
Command line compressor : C:Program FilesExact Audio CopyFlacflac.exe
Additional command line options : -V -8 -T "Genre=%genre%" -T "Artist=%artist%" -T "Title=%title%" -T "Album=%albumtitle%" -T "Date=%year%" -T "Tracknumber=%tracknr%" -T "Comment=%comment%" %source%


TOC of the extracted CD

Track | Start | Length | Start sector | End sector
---------------------------------------------------------
1 | 0:00.00 | 2:39.62 | 0 | 11986
2 | 2:39.62 | 2:13.57 | 11987 | 22018
3 | 4:53.44 | 2:26.06 | 22019 | 32974
4 | 7:19.50 | 2:16.26 | 32975 | 43200
5 | 9:36.01 | 2:20.48 | 43201 | 53748
6 | 11:56.49 | 2:10.27 | 53749 | 63525
7 | 14:07.01 | 1:51.36 | 63526 | 71886
8 | 15:58.37 | 1:57.10 | 71887 | 80671
9 | 17:55.47 | 2:33.58 | 80672 | 92204
10 | 20:29.30 | 2:04.14 | 92205 | 101518
11 | 22:33.44 | 2:29.19 | 101519 | 112712
12 | 25:02.63 | 2:12.51 | 112713 | 122663
13 | 27:15.39 | 2:24.55 | 122664 | 133518
14 | 29:40.19 | 1:51.08 | 133519 | 141851
15 | 31:31.27 | 2:09.14 | 141852 | 151540
16 | 33:40.41 | 2:35.57 | 151541 | 163222
17 | 36:16.23 | 2:02.19 | 163223 | 172391
18 | 38:18.42 | 2:02.04 | 172392 | 181545
19 | 40:20.46 | 2:33.57 | 181546 | 193077
20 | 42:54.28 | 1:58.28 | 193078 | 201955
21 | 44:52.56 | 2:31.40 | 201956 | 213320
22 | 47:24.21 | 2:43.12 | 213321 | 225557
23 | 52:39.33 | 21:18.42 | 236958 | 332849


Track 1

Filename D:CDShane Fenton & The Fentones - The Complete A-Sides And B-Sides1. Shane Fenton & The Fentones - I'm A Moody Guy.wav

Pre-gap length 0:00:02.00

Peak level 96.9 %
Extraction speed 4.5 X
Track quality 100.0 %
Test CRC 88607D62
Copy CRC 88607D62
Cannot be verified as accurate (confidence 1) [2660D99C], AccurateRip returned [68B965C4] (AR v2)
Copy OK

Track 2

Filename D:CDShane Fenton & The Fentones - The Complete A-Sides And B-Sides2. Shane Fenton & The Fentones - Five Foot Two, Eyes Of Blue.wav

Pre-gap length 0:00:03.65

Peak level 90.8 %
Extraction speed 3.8 X
Track quality 99.9 %
Test CRC 0C3481B2
Copy CRC 0C3481B2
Cannot be verified as accurate (confidence 1) [FF1C8257], AccurateRip returned [106C8E20] (AR v2)
Copy OK

Track 3

Filename D:CDShane Fenton & The Fentones - The Complete A-Sides And B-Sides3. Shane Fenton & The Fentones - Walk Away.wav

Pre-gap length 0:00:03.33

Peak level 91.9 %
Extraction speed 4.2 X
Track quality 99.9 %
Test CRC 0AF61E10
Copy CRC 0AF61E10
Cannot be verified as accurate (confidence 1) [5DEE7B85], AccurateRip returned [73B0A493] (AR v2)
Copy OK

Track 4

Filename D:CDShane Fenton & The Fentones - The Complete A-Sides And B-Sides4. Shane Fenton & The Fentones - Fallen Leaves On The Ground.wav

Pre-gap length 0:00:03.20

Peak level 96.3 %
Extraction speed 5.1 X
Track quality 100.0 %
Test CRC 9C351DA5
Copy CRC 9C351DA5
Cannot be verified as accurate (confidence 2) [2E0020C3], AccurateRip returned [C72353FF] (AR v2)
Copy OK

Track 5

Filename D:CDShane Fenton & The Fentones - The Complete A-Sides And B-Sides5. Shane Fenton & The Fentones - It's All Over Now.wav

Pre-gap length 0:00:03.64

Peak level 85.0 %
Extraction speed 5.3 X
Track quality 100.0 %
Test CRC 2F15F01A
Copy CRC 2F15F01A
Cannot be verified as accurate (confidence 2) [4C6D10AD], AccurateRip returned [760C8639] (AR v2)
Copy OK

Track 6

Filename D:CDShane Fenton & The Fentones - The Complete A-Sides And B-Sides6. Shane Fenton & The Fentones - Why Little Girl.wav

Pre-gap length 0:00:03.32

Peak level 93.7 %
Extraction speed 5.5 X
Track quality 100.0 %
Test CRC 0AB0880D
Copy CRC 0AB0880D
Cannot be verified as accurate (confidence 2) [F855020D], AccurateRip returned [46CAEA20] (AR v2)
Copy OK

Track 7

Filename D:CDShane Fenton & The Fentones - The Complete A-Sides And B-Sides7. Shane Fenton & The Fentones - Cindy's Birthday.wav

Pre-gap length 0:00:03.37

Peak level 88.0 %
Extraction speed 5.4 X
Track quality 100.0 %
Test CRC 046A31DA
Copy CRC 046A31DA
Cannot be verified as accurate (confidence 1) [EBC3E440], AccurateRip returned [FF6444AD] (AR v2)
Copy OK

Track 8

Filename D:CDShane Fenton & The Fentones - The Complete A-Sides And B-Sides8. Shane Fenton & The Fentones - It's Gonna Take Magic.wav

Pre-gap length 0:00:03.56

Peak level 88.1 %
Extraction speed 5.6 X
Track quality 100.0 %
Test CRC 089DA5AD
Copy CRC 089DA5AD
Cannot be verified as accurate (confidence 2) [DAD3E1BB], AccurateRip returned [6E10BC72] (AR v2)
Copy OK

Track 9

Filename D:CDShane Fenton & The Fentones - The Complete A-Sides And B-Sides9. Shane Fenton & The Fentones - Too Young For Sad Memories.wav

Pre-gap length 0:00:02.64

Peak level 95.2 %
Extraction speed 6.2 X
Track quality 100.0 %
Test CRC 5960BB69
Copy CRC 5960BB69
Cannot be verified as accurate (confidence 2) [A3C937AE], AccurateRip returned [A0544344] (AR v2)
Copy OK

Track 10

Filename D:CDShane Fenton & The Fentones - The Complete A-Sides And B-Sides10. Shane Fenton & The Fentones - You're Telling Me.wav

Pre-gap length 0:00:04.01

Peak level 95.6 %
Extraction speed 5.0 X
Track quality 99.9 %
Test CRC 94C69702
Copy CRC 94C69702
Cannot be verified as accurate (confidence 1) [C65941B3], AccurateRip returned [744DBC94] (AR v2)
Copy OK

Track 11

Filename D:CDShane Fenton & The Fentones - The Complete A-Sides And B-Sides11. Shane Fenton & The Fentones - I Ain't Got Nobody.wav

Pre-gap length 0:00:03.55

Peak level 92.9 %
Extraction speed 6.5 X
Track quality 100.0 %
Test CRC 27EE67DD
Copy CRC 27EE67DD
Cannot be verified as accurate (confidence 1) [AAB3E45C], AccurateRip returned [CE0D1842] (AR v2)
Copy OK

Track 12

Filename D:CDShane Fenton & The Fentones - The Complete A-Sides And B-Sides12. Shane Fenton & The Fentones - Hey Miss Ruby.wav

Pre-gap length 0:00:03.73

Peak level 84.6 %
Extraction speed 6.6 X
Track quality 100.0 %
Test CRC 38CF1924
Copy CRC 38CF1924
Cannot be verified as accurate (confidence 2) [A373D692], AccurateRip returned [EF7E2C56] (AR v2)
Copy OK

Track 13

Filename D:CDShane Fenton & The Fentones - The Complete A-Sides And B-Sides13. Shane Fenton & The Fentones - A Fool's Paradise.wav

Pre-gap length 0:00:02.70

Peak level 88.3 %
Extraction speed 5.7 X
Track quality 99.9 %
Test CRC D7504325
Copy CRC D7504325
Cannot be verified as accurate (confidence 1) [CF017921], AccurateRip returned [D06CD211] (AR v2)
Copy OK

Track 14

Filename D:CDShane Fenton & The Fentones - The Complete A-Sides And B-Sides14. Shane Fenton & The Fentones - You Need Love.wav

Pre-gap length 0:00:04.05

Peak level 90.5 %
Extraction speed 6.5 X
Track quality 100.0 %
Test CRC 82BA798D
Copy CRC 82BA798D
Cannot be verified as accurate (confidence 1) [64D8C35B], AccurateRip returned [041325B5] (AR v2)
Copy OK

Track 15

Filename D:CDShane Fenton & The Fentones - The Complete A-Sides And B-Sides15. Shane Fenton & The Fentones - Don't Do That.wav

Pre-gap length 0:00:04.24

Peak level 89.6 %
Extraction speed 5.7 X
Track quality 99.9 %
Test CRC 2853DBDE
Copy CRC 2853DBDE
Cannot be verified as accurate (confidence 2) [8625DCE6], AccurateRip returned [522500A5] (AR v2)
Copy OK

Track 16

Filename D:CDShane Fenton & The Fentones - The Complete A-Sides And B-Sides16. Shane Fenton & The Fentones - I'll Know.wav

Pre-gap length 0:00:03.02

Peak level 86.9 %
Extraction speed 7.3 X
Track quality 100.0 %
Test CRC F1B750DC
Copy CRC F1B750DC
Cannot be verified as accurate (confidence 2) [1EDDE03F], AccurateRip returned [5C8485F7] (AR v2)
Copy OK

Track 17

Filename D:CDShane Fenton & The Fentones - The Complete A-Sides And B-Sides17. Shane Fenton & The Fentones - Hey Lulu.wav

Pre-gap length 0:00:04.10

Peak level 90.3 %
Extraction speed 7.1 X
Track quality 100.0 %
Test CRC 041B329D
Copy CRC 041B329D
Cannot be verified as accurate (confidence 2) [055411C4], AccurateRip returned [FD5C3A5A] (AR v2)
Copy OK

Track 18

Filename D:CDShane Fenton & The Fentones - The Complete A-Sides And B-Sides18. Shane Fenton & The Fentones - I Do, Do You.wav

Pre-gap length 0:00:03.54

Peak level 94.6 %
Extraction speed 7.2 X
Track quality 100.0 %
Test CRC F0A070DF
Copy CRC F0A070DF
Cannot be verified as accurate (confidence 2) [B40C70D6], AccurateRip returned [1271FC84] (AR v2)
Copy OK

Track 19

Filename D:CDShane Fenton & The Fentones - The Complete A-Sides And B-Sides19. The Fentones - The Mexican.wav

Pre-gap length 0:00:03.16

Peak level 86.0 %
Extraction speed 7.7 X
Track quality 100.0 %
Test CRC 8E0DCFB7
Copy CRC 8E0DCFB7
Cannot be verified as accurate (confidence 2) [C1746CCC], AccurateRip returned [ABD2DCE7] (AR v2)
Copy OK

Track 20

Filename D:CDShane Fenton & The Fentones - The Complete A-Sides And B-Sides20. The Fentones - Lover's Guitar.wav

Pre-gap length 0:00:04.11

Peak level 84.9 %
Extraction speed 7.4 X
Track quality 100.0 %
Test CRC 22207FAA
Copy CRC 22207FAA
Cannot be verified as accurate (confidence 2) [5C228014], AccurateRip returned [4F51E90E] (AR v2)
Copy OK

Track 21

Filename D:CDShane Fenton & The Fentones - The Complete A-Sides And B-Sides21. The Fentones - The Breeze And I.wav

Pre-gap length 0:00:03.56

Peak level 96.8 %
Extraction speed 8.0 X
Track quality 100.0 %
Test CRC 3C717FA8
Copy CRC 3C717FA8
Cannot be verified as accurate (confidence 2) [621199F9], AccurateRip returned [CD19056B] (AR v2)
Copy OK

Track 22

Filename D:CDShane Fenton & The Fentones - The Complete A-Sides And B-Sides22. The Fentones - Just For Jerry.wav

Pre-gap length 0:00:03.54

Peak level 97.1 %
Extraction speed 8.2 X
Track quality 100.0 %
Test CRC 8EEFC96C
Copy CRC 8EEFC96C
Cannot be verified as accurate (confidence 1) [C3F0D02A], AccurateRip returned [46593210] (AR v2)
Copy OK


No tracks could be verified as accurate
You may have a different pressing from the one(s) in the database

No errors occurred

End of status report

---- CUETools DB Plugin V2.1.3

[CTDB TOCID: oBliMq1MzHvpb3Yfjgv2kkZAbDQ-] found, Submit result: already submitted
[52da464e] (1/2) No match
[548bdf96] (1/2) Accurately ripped


==== Log checksum 687816D1A909C4A2B85E75108F0AEB3DD2E85655352F7250E0693144CFC7CA77 ====


[CUETools log; Date: 1/20/2015 9:34:43 PM; Version: 2.1.4]
CD-Extra data track length 21:18:42.
[CTDB TOCID: oBliMq1MzHvpb3Yfjgv2kkZAbDQ-] found.
Track | CTDB Status
1 | (1/2) Accurately ripped
2 | (1/2) Accurately ripped
3 | (1/2) Accurately ripped
4 | (1/2) Accurately ripped
5 | (1/2) Accurately ripped
6 | (1/2) Accurately ripped
7 | (1/2) Accurately ripped
8 | (1/2) Accurately ripped
9 | (1/2) Accurately ripped
10 | (1/2) Accurately ripped
11 | (1/2) Accurately ripped
12 | (1/2) Accurately ripped
13 | (1/2) Accurately ripped
14 | (1/2) Accurately ripped
15 | (1/2) Accurately ripped
16 | (1/2) Accurately ripped
17 | (1/2) Accurately ripped
18 | (1/2) Accurately ripped
19 | (1/2) Accurately ripped
20 | (1/2) Accurately ripped
21 | (1/2) Accurately ripped
22 | (1/2) Accurately ripped
[AccurateRip ID: 00291cfb-029ab157-41115617] found.
Track [ CRC | V2 ] Status
01 [7b4e479e|2660d99c] (0+0/1) No match
02 [72b5a68c|ff1c8257] (0+0/2) No match
03 [62c4c289|5dee7b85] (0+0/2) No match
04 [957bfa46|2e0020c3] (0+0/2) No match
05 [3749a572|4c6d10ad] (0+0/2) No match
06 [4c326be2|f855020d] (0+0/2) No match
07 [039bda1c|ebc3e440] (0+0/1) No match
08 [307efe46|dad3e1bb] (0+0/2) No match
09 [5ce77055|a3c937ae] (0+0/2) No match
10 [93c1003b|c65941b3] (0+0/2) No match
11 [f6d55d7b|aab3e45c] (0+0/2) No match
12 [e13679cc|a373d692] (0+0/2) No match
13 [5a56eb71|cf017921] (0+0/2) No match
14 [422fb985|64d8c35b] (0+0/2) No match
15 [604d2ab7|8625dce6] (0+0/2) No match
16 [d533d49d|1edde03f] (0+0/2) No match
17 [c9562803|055411c4] (0+0/2) No match
18 [cda6e336|b40c70d6] (0+0/2) No match
19 [0232dd4a|c1746ccc] (0+0/2) No match
20 [ed5e0ad6|5c228014] (0+0/2) No match
21 [00f03774|621199f9] (0+0/2) No match
22 [82592869|c3f0d02a] (0+0/2) No match

Track Peak [ CRC32 ] [W/O NULL] [ LOG ]
-- 97.1 [835F694F] [F49D91A1]
01 96.9 [88607D62] [EF5AB781] CRC32
02 90.8 [0C3481B2] [5620AF16] CRC32
03 91.9 [0AF61E10] [F4768E64] CRC32
04 96.3 [9C351DA5] [F70893C1] CRC32
05 84.9 [2F15F01A] [FD45B848] CRC32
06 93.7 [0AB0880D] [4B01E9FE] CRC32
07 88.0 [046A31DA] [0002616C] CRC32
08 88.1 [089DA5AD] [E1E39118] CRC32
09 95.2 [5960BB69] [9E993FF9] CRC32
10 95.6 [94C69702] [A5EF64F5] CRC32
11 92.9 [27EE67DD] [ADE9093D] CRC32
12 84.6 [38CF1924] [EA149A61] CRC32
13 88.3 [D7504325] [C87FDB3B] CRC32
14 90.5 [82BA798D] [FEAAA88D] CRC32
15 89.6 [2853DBDE] [5E7B96EA] CRC32
16 86.9 [F1B750DC] [BD8E4534] CRC32
17 90.3 [041B329D] [772A746A] CRC32
18 94.6 [F0A070DF] [87A9E8E9] CRC32
19 86.0 [8E0DCFB7] [FBC91E3D] CRC32
20 84.9 [22207FAA] [06EBA688] CRC32
21 96.8 [3C717FA8] [5AE142B1] CRC32
22 97.1 [8EEFC96C] [BA3797F3] CRC32


Released Date: May 6, 2003
Format: CD, Album
Length: 50:07


Ripped by bachelor-62


All links are interchangeable!

Broken links? please send me a private message.







password: www.AvaxHome.ru