Dale Watson and His Lone Stars – People I’ve Known, Places I’ve been


Dale Watson and His Lone Stars – People I’ve Known, Places I’ve been (1999)
Country/Classic Country | FLAC lossless | cuesheets+log | covers+booklet | 31m26s | 172mb
Label: Continental Song City | cat. no. CSCCD 1011


Dale Watson (born October 7, 1962 in Birmingham, Alabama) is an American country/Texas Country singer, guitarist, songwriter, and self-published author based in Austin, Texas. He champions "Ameripolitan" as a new genre of original music and has positioned himself as a tattooed, stubbornly independent outsider who is interested in recording authentic country music. As a result, his record sales have been slow, but he has become a favorite of critics and alt-country fans.


Tracks:

01. Louie's Lee's Liquor Lounge [0:02:10.80]
02. Charlie Our Shoeshine Man [0:02:50.29]
03. Blue Our Old Cell Block Guard [0:02:13.37]
04. Hey Don (support my favorite beertender) [0:02:20.66]
05. Lefty (Chavis County Jail) [0:03:00.02]
06. Rattlesnake Train [0:02:05.20]
07. Luther [0:02:07.86]
08. Johnny At The Door [0:02:53.64]
09. England To Texas [0:03:56.89]
10. Whatever Happened To Sam [0:02:34.10]
11. That Man In The Lloyd Cross Crease [0:02:44.22]
12. Roadtrain [0:02:34.04]

Performers:

Dale Watson – electric guitars, vocals
Ricky Davis – sho-bud pedal steel, Hawaiian stringmaster, background vocals
Scott Matthews – drums and percussion
Billy Dee Donahue – electric bass, background vocals
Dave Biller – acoustic guitar
Jason Roberts – fiddle

Exact Audio Copy V1.0 beta 3 from 29. August 2011

EAC extraction logfile from 23. December 2014, 22:39

Dale Watson and his Lone Stars / Places I've Known, Places I've Been

Used drive : TSSTcorpCDDVDW SH-216AB Adapter: 1 ID: 0

Read mode : Secure
Utilize accurate stream : Yes
Defeat audio cache : Yes
Make use of C2 pointers : No

Read offset correction : 6
Overread into Lead-In and Lead-Out : No
Fill up missing offset samples with silence : Yes
Delete leading and trailing silent blocks : No
Null samples used in CRC calculations : Yes
Used interface : Native Win32 interface for Win NT & 2000
Gap handling : Appended to previous track

Used output format : User Defined Encoder
Selected bitrate : 768 kBit/s
Quality : High
Add ID3 tag : No
Command line compressor : C:Program Files (x86)Exact Audio CopyFLACFLAC.EXE
Additional command line options : -6 -V -T "ARTIST=%artist%" -T "TITLE=%title%" -T "ALBUM=%albumtitle%" -T "DATE=%year%" -T "TRACKNUMBER=%tracknr%" -T "GENRE=%genre%" -T "COMMENT=%comment%" -T "BAND=%albuminterpret%" -T "ALBUMARTIST=%albuminterpret%" -T "COMPOSER=%composer%" %haslyrics%--tag-from-file=LYRICS="%lyricsfile%"%haslyrics% -T "DISCNUMBER=%cdnumber%" -T "TOTALDISCS=%totalcds%" -T "TOTALTRACKS=%numtracks%" %hascover%--picture="%coverfile%"%hascover% %source% -o %dest%


TOC of the extracted CD

Track | Start | Length | Start sector | End sector
---------------------------------------------------------
1 | 0:00.00 | 2:10.60 | 0 | 9809
2 | 2:10.60 | 2:50.22 | 9810 | 22581
3 | 5:01.07 | 2:13.28 | 22582 | 32584
4 | 7:14.35 | 2:20.50 | 32585 | 43134
5 | 9:35.10 | 3:00.02 | 43135 | 56636
6 | 12:35.12 | 2:05.15 | 56637 | 66026
7 | 14:40.27 | 2:07.65 | 66027 | 75616
8 | 16:48.17 | 2:53.48 | 75617 | 88639
9 | 19:41.65 | 3:56.67 | 88640 | 106406
10 | 23:38.57 | 2:34.08 | 106407 | 117964
11 | 26:12.65 | 2:44.17 | 117965 | 130281
12 | 28:57.07 | 2:34.03 | 130282 | 141834


Track 1

Filename C:Usersastarte3. POSTWatson, Dale and His Lone Stars - Places I've Known, Places I've Been1. Louie's Lee's Liquor Lounge.wav

Pre-gap length 0:00:02.00

Peak level 99.9 %
Extraction speed 1.4 X
Track quality 99.9 %
Copy CRC 118E3904
Accurately ripped (confidence 4) [8D23169E] (AR v2)
Copy OK

Track 2

Filename C:Usersastarte3. POSTWatson, Dale and His Lone Stars - Places I've Known, Places I've Been2. Charlie Our Shoeshine Man.wav

Pre-gap length 0:00:01.40

Peak level 99.9 %
Extraction speed 1.6 X
Track quality 99.9 %
Copy CRC 944BEEA4
Accurately ripped (confidence 4) [25A0887F] (AR v2)
Copy OK

Track 3

Filename C:Usersastarte3. POSTWatson, Dale and His Lone Stars - Places I've Known, Places I've Been3. Blue Our Old Cell Block Guard.wav

Pre-gap length 0:00:01.42

Peak level 99.9 %
Extraction speed 1.7 X
Track quality 100.0 %
Copy CRC BBA0A9DB
Accurately ripped (confidence 4) [A40FCA87] (AR v2)
Copy OK

Track 4

Filename C:Usersastarte3. POSTWatson, Dale and His Lone Stars - Places I've Known, Places I've Been4. Hey Don (support my favorite beertender).wav

Pre-gap length 0:00:01.40

Peak level 99.1 %
Extraction speed 1.8 X
Track quality 100.0 %
Copy CRC A73FCC01
Accurately ripped (confidence 4) [766940B2] (AR v2)
Copy OK

Track 5

Filename C:Usersastarte3. POSTWatson, Dale and His Lone Stars - Places I've Known, Places I've Been5. Lefty (Chavis County Jail).wav

Pre-gap length 0:00:01.20

Peak level 99.9 %
Extraction speed 2.0 X
Track quality 100.0 %
Copy CRC 7C218A26
Accurately ripped (confidence 4) [4129A1C8] (AR v2)
Copy OK

Track 6

Filename C:Usersastarte3. POSTWatson, Dale and His Lone Stars - Places I've Known, Places I've Been6. Rattlesnake Train.wav

Pre-gap length 0:00:01.22

Peak level 98.5 %
Extraction speed 2.0 X
Track quality 100.0 %
Copy CRC 2B04879A
Accurately ripped (confidence 4) [818482C1] (AR v2)
Copy OK

Track 7

Filename C:Usersastarte3. POSTWatson, Dale and His Lone Stars - Places I've Known, Places I've Been7. Luther.wav

Pre-gap length 0:00:01.46

Peak level 99.9 %
Extraction speed 2.0 X
Track quality 100.0 %
Copy CRC E7281848
Accurately ripped (confidence 4) [89DFE9FC] (AR v2)
Copy OK

Track 8

Filename C:Usersastarte3. POSTWatson, Dale and His Lone Stars - Places I've Known, Places I've Been8. Johnny At The Door.wav

Pre-gap length 0:00:01.16

Peak level 99.9 %
Extraction speed 2.0 X
Track quality 99.9 %
Copy CRC D2DD43CD
Accurately ripped (confidence 4) [831D8DEE] (AR v2)
Copy OK

Track 9

Filename C:Usersastarte3. POSTWatson, Dale and His Lone Stars - Places I've Known, Places I've Been9. England To Texas.wav

Pre-gap length 0:00:01.44

Peak level 95.4 %
Extraction speed 2.5 X
Track quality 100.0 %
Copy CRC F02F2B69
Accurately ripped (confidence 4) [415A2852] (AR v2)
Copy OK

Track 10

Filename C:Usersastarte3. POSTWatson, Dale and His Lone Stars - Places I've Known, Places I've Been10. Whatever Happened To Sam.wav

Pre-gap length 0:00:01.33

Peak level 99.9 %
Extraction speed 2.4 X
Track quality 100.0 %
Copy CRC 7C339AC4
Accurately ripped (confidence 4) [31694C7F] (AR v2)
Copy OK

Track 11

Filename C:Usersastarte3. POSTWatson, Dale and His Lone Stars - Places I've Known, Places I've Been11. That Man In The Lloyd Cross Crease.wav

Pre-gap length 0:00:01.40

Peak level 91.2 %
Extraction speed 2.6 X
Track quality 100.0 %
Copy CRC DC54E81D
Accurately ripped (confidence 4) [E9E2ACB6] (AR v2)
Copy OK

Track 12

Filename C:Usersastarte3. POSTWatson, Dale and His Lone Stars - Places I've Known, Places I've Been12. Roadtrain.wav

Pre-gap length 0:00:01.26

Peak level 93.3 %
Extraction speed 2.1 X
Track quality 99.9 %
Copy CRC 14F62CF6
Accurately ripped (confidence 4) [CDB4F3E2] (AR v2)
Copy OK


All tracks accurately ripped

No errors occurred

End of status report

==== Log checksum 3CBD601F95C694CF6BE6F46311B7576917A59D5FF624416F002954DF3F0F16EC ====