Вход в свой аккаунт

Или войдите через соц. сети

Chet Atkins - Chet Picks On The Grammys (2002)


Chet Atkins - Chet Picks On The Grammys (2002)
EAC | FLAC | Image (Cue&Log) ~ 248 Mb (incl 5%) | Mp3 (CBR320) ~ 121 Mb (incl 5%) | Scans included
Genre: Country, Country Boogie, Finger-Picked Guitar | Label: Columbia | # CK 85375 | Time: 00:43:37

“ Chet Picks on the Grammys is a compilation recording by American guitarist Chet Atkins. The 13 tracks are all recordings of songs that won Grammy awards from 1967 to 1996. The songs either won a Grammy individually or were included on an album that won. ”


“ So many gallons of ink have been spilled singing the praises of Chet Atkins that it's difficult for reviewers to find new ways to describe the quality that made his guitar style so special. There had been other good pickers before Atkins. Merle Travis used a similar style earlier, called "Travis picking," but was also known as the singer of classics like "Smoke, Smoke, Smoke That Cigarette." Joe Maphis, a contemporary of Atkins, worshiped at the alter of speedy licks, trading individual style for "fire on the strings." Atkins' style, both urban and refined, was always identifiable. This was true whether he was playing holiday songs or the Beatles. Chet Picks on the Grammys collects 13 instrumentals that won Grammys between 1967 and 1996. Even over such a long period with disparate changes in production, Atkins' combination of chords and thumb technique remained distinct. There are a number of choice items here and many will be familiar as hits by other artists. "Snowbird" harks back to 1971 and "Ready for the Times to Get Better" to 1981. As though to prove he wasn't just a country boy with a guitar, Atkins also tackles "The Entertainer" and offers a fascinating rendering of Duke Ellington's "Caravan." Chet Picks on the Grammys offers a good overview of Atkins' instrumental work and a fine excuse for reviewers to spill a few more gallons of ink singing the praises of Mister Guitar.

Review by Ronnie D. Lankford, Jr., Allmusic.com
”






Tracklist:

01. Tears (02:46)
02. Nut Sunday (02:39) with Jerry Reed
03. Snowbird (02:16)
04. I'll See You In My Dreams (03:20) with Merle Travis
05. The Entertainer (02:18)
06. Caravan (03:18) with Les Paul
07. Ready For The Times To Get Better (04:09)
08. Cosmic Square Dance (04:17) with Mark Knopfler
09. So Soft, Your Goodbye (03:20) with Mark Knopfler
10. Poor Boy Blues (04:05) with Mark Knopfler
11. Sneakin' Around (04:27) with Jerry Reed
12. Young Thing (03:15)
13. Jam Man (03:22)


Exact Audio Copy V1.0 beta 4 from 7. December 2014

EAC extraction logfile from 18. January 2015, 13:59

Chet Atkins / Chet Picks On The Grammys

Used drive : ASUS SDRW-08D1S-U Adapter: 1 ID: 1

Read mode : Secure
Utilize accurate stream : Yes
Defeat audio cache : Yes
Make use of C2 pointers : No

Read offset correction : 667
Overread into Lead-In and Lead-Out : No
Fill up missing offset samples with silence : Yes
Delete leading and trailing silent blocks : No
Null samples used in CRC calculations : Yes
Used interface : Native Win32 interface for Win NT & 2000

Used output format : User Defined Encoder
Selected bitrate : 128 kBit/s
Quality : High
Add ID3 tag : No
Command line compressor : C:Program Files (x86)Exact Audio CopyFlacflac.exe
Additional command line options : -V -8 -T "Date=%year%" -T "Genre=%genre%" %source%


TOC of the extracted CD

Track | Start | Length | Start sector | End sector
---------------------------------------------------------
1 | 0:00.00 | 2:46.02 | 0 | 12451
2 | 2:46.02 | 2:39.64 | 12452 | 24440
3 | 5:25.66 | 2:16.29 | 24441 | 34669
4 | 7:42.20 | 3:20.48 | 34670 | 49717
5 | 11:02.68 | 2:18.11 | 49718 | 60078
6 | 13:21.04 | 3:18.28 | 60079 | 74956
7 | 16:39.32 | 4:09.58 | 74957 | 93689
8 | 20:49.15 | 4:17.57 | 93690 | 113021
9 | 25:06.72 | 3:20.38 | 113022 | 128059
10 | 28:27.35 | 4:05.03 | 128060 | 146437
11 | 32:32.38 | 4:27.02 | 146438 | 166464
12 | 36:59.40 | 3:15.04 | 166465 | 181093
13 | 40:14.44 | 3:22.48 | 181094 | 196291


Range status and errors

Selected range

Filename C:UsersОлегDesktopChet Picks on the GrammysChet Atkins - Chet Picks On The Grammys.wav

Peak level 100.0 %
Extraction speed 1.9 X
Range quality 100.0 %
Test CRC 1B35AD16
Copy CRC 1B35AD16
Copy OK

No errors occurred


AccurateRip summary

Track 1 accurately ripped (confidence 2) [D9B877D6] (AR v2)
Track 2 accurately ripped (confidence 2) [05C31644] (AR v2)
Track 3 accurately ripped (confidence 2) [0530582C] (AR v2)
Track 4 accurately ripped (confidence 2) [2F8B6563] (AR v2)
Track 5 accurately ripped (confidence 2) [87F9BED4] (AR v2)
Track 6 accurately ripped (confidence 2) [35C50416] (AR v2)
Track 7 accurately ripped (confidence 2) [485F6E29] (AR v2)
Track 8 accurately ripped (confidence 2) [74B191A8] (AR v2)
Track 9 accurately ripped (confidence 2) [B96A7A48] (AR v2)
Track 10 accurately ripped (confidence 2) [3E79229C] (AR v2)
Track 11 accurately ripped (confidence 2) [1B31DA15] (AR v2)
Track 12 accurately ripped (confidence 2) [D685EF8E] (AR v2)
Track 13 accurately ripped (confidence 2) [D52A928C] (AR v2)

All tracks accurately ripped

End of status report

---- CUETools DB Plugin V2.1.4

[CTDB TOCID: xoEm_KgDbNXf5Bt0GOobOZIKRhA-] found
Submit result: xoEm_KgDbNXf5Bt0GOobOZIKRhA- has been confirmed
Track | CTDB Status
1 | (3/3) Accurately ripped
2 | (3/3) Accurately ripped
3 | (3/3) Accurately ripped
4 | (3/3) Accurately ripped
5 | (3/3) Accurately ripped
6 | (3/3) Accurately ripped
7 | (3/3) Accurately ripped
8 | (3/3) Accurately ripped
9 | (3/3) Accurately ripped
10 | (3/3) Accurately ripped
11 | (3/3) Accurately ripped
12 | (3/3) Accurately ripped
13 | (3/3) Accurately ripped


==== Log checksum 106B094F72D5843A23C9634294CAF327033873D19AADF115A07FDE861FFCE352 ====

foobar2000 1.2 / Dynamic Range Meter 1.1.1
log date: 2015-01-21 15:18:21

--------------------------------------------------------------------------------
Analyzed: Chet Atkins / Chet Picks On The Grammys
--------------------------------------------------------------------------------

DR Peak RMS Duration Track
--------------------------------------------------------------------------------
DR10 -1.22 dB -13.93 dB 2:46 01-Tears
DR13 -0.24 dB -18.52 dB 2:40 02-Nut Sunday
DR11 -1.67 dB -14.33 dB 2:16 03-Snowbird
DR11 -2.40 dB -14.72 dB 3:21 04-I'll See You In My Dreams
DR12 -1.76 dB -17.50 dB 2:18 05-The Entertainer
DR12 0.00 dB -14.77 dB 3:18 06-Caravan
DR13 -0.02 dB -15.43 dB 4:10 07-Ready For The Times To Get Better
DR16 -0.48 dB -19.54 dB 4:18 08-Cosmic Square Dance
DR12 -3.28 dB -19.86 dB 3:21 09-So Soft, Your Goodbye
DR14 0.00 dB -16.40 dB 4:05 10-Poor Boy Blues
DR14 -1.38 dB -20.10 dB 4:27 11-Sneakin' Around
DR12 -1.15 dB -15.06 dB 3:15 12-Young Thing
DR9 -2.21 dB -14.06 dB 3:23 13-Jam Man
--------------------------------------------------------------------------------

Number of tracks: 13
Official DR value: DR12

Samplerate: 44100 Hz
Channels: 2
Bits per sample: 16
Bitrate: 708 kbps
Codec: FLAC
================================================================================



All thanks to original releaser - Alex Fal







Password: designol