Вход в свой аккаунт

Или войдите через соц. сети

VA - Adios Amigo: A Tribute To Arthur Alexander (1994)


VA - Adios Amigo: A Tribute To Arthur Alexander (1994)
EAC | FLAC | Tracks (Cue&Log) ~ 366 Mb (incl 5%) | Mp3 (CBR320) ~ 159 Mb (incl 5%) | Scans included
Genre: Rock, Soul, Rock & Roll, Country Soul, Country Rock, Roots Rock | Label: Razor & Tie | # 8400172 | Time: 00:53:32

“ Among musicians, Arthur Alexander was always considered one of the greatest R&B songwriters. Both the Beatles and the Rolling Stones covered his songs, "Anna (Go to Him)" and "You Better Move On," respectively, early in their careers. But they weren't the only ones -- throughout the years, his work was rich source material for many blues, soul, rock, and country artists. He may have earned the recognition of his peers, but he remained relatively unknown to the general public, right up to his death in 1993. In order to raise his profile, Razor & Tie released Adios Amigo: A Tribute to Arthur Alexander in 1994, assembling a stellar and diverse lineup to record new versions of his songs. The diversity and the fresh arrangements illustrates the depth of Alexander's songs and how well they lent themselves to new readings. Like any tribute album, Adios Amigo is uneven, with a few tracks falling flat, but the best moments -- Elvis Costello's "Sally Sue Brown," Robert Plant's "If It's Really Got to Be This Way," Chuck Jackson's "You Better Move On," Frank Black's "Old John Amos," John Prine's "Lonely Just Like Me," Gary U.S. Bonds' "Genie in the Jug," Graham Parker's "Every Day I Have to Cry" and Nick Lowe's "In the Middle of It All" -- are affectionate salutes to a departed master, and they're damn enjoyable in their own right as well.

Review by Stephen Thomas Erlewine, Allmusic.com
”






Tracklist:

01. Roger McGuinn - Anna (03:09)
02. Elvis Costello - Sally Sue Brown (02:17)
03. Robert Plant - If It's Really Got To Be This Way (04:02)
04. Graham Parker - Every Day I Have To Cry (03:11)
05. Chuck Jackson & Mark Knopfler - You Better Move On (03:41)
06. Frank Black - Old John Amos (02:24)
07. Marshall Crenshaw - I'd Do It Over Again (02:34)
08. Sir Mack Rice & Michael Hill - Let' Think About It (03:35)
09. John Prine - Lonely Just Like Me (03:08)
10. Corey Glover - Johnny Heartbreak (02:55)
11. Nick Lowe - In The Middle Of It All (03:02)
12. Zucchero - From Now On (03:59)
13. Frank Black & Gary U.S. Bonds - Go Home Girl (03:00)
14. Felix Cavaliere & Veronica - I Love You So (03:04)
15. Pookie Hudson - Baby Can't You Wait (04:21)
16. Gary U.S. Bonds - Genie In The Jug (02:37)
17. Dan Penn & Donnie Fritts - Adios Amigo (02:26)


Exact Audio Copy V0.99 prebeta 5 from 4. May 2009

EAC extraction logfile from 7. June 2011, 7:31

Various / Adios Amigo: A Tribute To Arthur Alexander

Used drive : TSSTcorpDVD-ROM SH-D162C Adapter: 1 ID: 1

Read mode : Secure
Utilize accurate stream : Yes
Defeat audio cache : Yes
Make use of C2 pointers : No

Read offset correction : 6
Overread into Lead-In and Lead-Out : No
Fill up missing offset samples with silence : Yes
Delete leading and trailing silent blocks : No
Null samples used in CRC calculations : Yes
Used interface : Installed external ASPI interface
Gap handling : Appended to previous track

Used output format : User Defined Encoder
Selected bitrate : 1024 kBit/s
Quality : High
Add ID3 tag : No
Command line compressor : C:Program FilesExact Audio CopyFLACFLAC.EXE
Additional command line options : -8 -V -T "ARTIST=%a" -T "TITLE=%t" -T "ALBUM=%g" -T "DATE=%y" -T "TRACKNUMBER=%n" -T "GENRE=%m" -T "COMMENT=%e" %s -o %d


TOC of the extracted CD

Track | Start | Length | Start sector | End sector
---------------------------------------------------------
1 | 0:00.32 | 3:09.00 | 32 | 14206
2 | 3:09.32 | 2:17.58 | 14207 | 24539
3 | 5:27.15 | 4:02.07 | 24540 | 42696
4 | 9:29.22 | 3:11.50 | 42697 | 57071
5 | 12:40.72 | 3:41.45 | 57072 | 73691
6 | 16:22.42 | 2:24.28 | 73692 | 84519
7 | 18:46.70 | 2:34.05 | 84520 | 96074
8 | 21:21.00 | 3:35.20 | 96075 | 112219
9 | 24:56.20 | 3:08.12 | 112220 | 126331
10 | 28:04.32 | 2:55.10 | 126332 | 139466
11 | 30:59.42 | 3:02.60 | 139467 | 153176
12 | 34:02.27 | 3:59.70 | 153177 | 171171
13 | 38:02.22 | 3:00.70 | 171172 | 184741
14 | 41:03.17 | 3:04.18 | 184742 | 198559
15 | 44:07.35 | 4:21.30 | 198560 | 218164
16 | 48:28.65 | 2:37.25 | 218165 | 229964
17 | 51:06.15 | 2:26.27 | 229965 | 240941


Track 1

Filename K:CaptureCDex Compress[01] Roger McGuinn - Anna.wav

Pre-gap length 0:00:02.42

Peak level 99.2 %
Track quality 100.0 %
Test CRC D0824A09
Copy CRC D0824A09
Track not present in AccurateRip database
Copy OK

Track 2

Filename K:CaptureCDex Compress[02] Elvis Costello - Sally Sue Brown.wav

Pre-gap length 0:00:02.26

Peak level 96.6 %
Track quality 100.0 %
Test CRC 8DC94F02
Copy CRC 8DC94F02
Track not present in AccurateRip database
Copy OK

Track 3

Filename K:CaptureCDex Compress[03] Robert Plant - If It's Really Got To Be This Way.wav

Pre-gap length 0:00:02.44

Peak level 99.2 %
Track quality 99.9 %
Test CRC 52F9399C
Copy CRC 52F9399C
Track not present in AccurateRip database
Copy OK

Track 4

Filename K:CaptureCDex Compress[04] Graham Parker - Every Day I Have To Cry.wav

Pre-gap length 0:00:01.40

Peak level 94.9 %
Track quality 100.0 %
Test CRC F14A6B45
Copy CRC F14A6B45
Track not present in AccurateRip database
Copy OK

Track 5

Filename K:CaptureCDex Compress[05] Chuck Jackson & Mark Knopfler - You Better Move On.wav

Pre-gap length 0:00:01.42

Peak level 95.5 %
Track quality 100.0 %
Test CRC 1A7974DC
Copy CRC 1A7974DC
Track not present in AccurateRip database
Copy OK

Track 6

Filename K:CaptureCDex Compress[06] Frank Black - Old John Amos.wav

Pre-gap length 0:00:01.02

Peak level 94.0 %
Track quality 100.0 %
Test CRC 11DD3714
Copy CRC 11DD3714
Track not present in AccurateRip database
Copy OK

Track 7

Filename K:CaptureCDex Compress[07] Marshall Crenshaw - I'd Do It Over Again.wav

Pre-gap length 0:00:01.30

Peak level 99.2 %
Track quality 99.9 %
Test CRC 4AB0B606
Copy CRC 4AB0B606
Track not present in AccurateRip database
Copy OK

Track 8

Filename K:CaptureCDex Compress[08] Sir Mack Rice & Michael Hill - Let' Think About It.wav

Pre-gap length 0:00:02.37

Peak level 95.8 %
Track quality 100.0 %
Test CRC E3EEF86C
Copy CRC E3EEF86C
Track not present in AccurateRip database
Copy OK

Track 9

Filename K:CaptureCDex Compress[09] John Prine - Lonely Just Like Me.wav

Pre-gap length 0:00:01.77

Peak level 91.5 %
Track quality 100.0 %
Test CRC 40C671CC
Copy CRC 40C671CC
Track not present in AccurateRip database
Copy OK

Track 10

Filename K:CaptureCDex Compress[10] Corey Glover - Johnny Heartbreak.wav

Pre-gap length 0:00:02.53

Peak level 96.6 %
Track quality 100.0 %
Test CRC 7768B1E9
Copy CRC 7768B1E9
Track not present in AccurateRip database
Copy OK

Track 11

Filename K:CaptureCDex Compress[11] Nick Lowe - In The Middle Of It All.wav

Pre-gap length 0:00:01.82

Peak level 99.2 %
Track quality 100.0 %
Test CRC D628A396
Copy CRC D628A396
Track not present in AccurateRip database
Copy OK

Track 12

Filename K:CaptureCDex Compress[12] Zucchero - From Now On.wav

Pre-gap length 0:00:02.02

Peak level 94.6 %
Track quality 100.0 %
Test CRC 913C3E55
Copy CRC 913C3E55
Track not present in AccurateRip database
Copy OK

Track 13

Filename K:CaptureCDex Compress[13] Frank Black & Gary U.S. Bonds - Go Home Girl.wav

Pre-gap length 0:00:02.16

Peak level 88.4 %
Track quality 100.0 %
Test CRC 01EABC50
Copy CRC 01EABC50
Track not present in AccurateRip database
Copy OK

Track 14

Filename K:CaptureCDex Compress[14] Felix Cavaliere & Veronica - I Love You So.wav

Pre-gap length 0:00:01.86

Peak level 92.5 %
Track quality 100.0 %
Test CRC 2D3D1432
Copy CRC 2D3D1432
Track not present in AccurateRip database
Copy OK

Track 15

Filename K:CaptureCDex Compress[15] Pookie Hudson - Baby Can't You Wait.wav

Pre-gap length 0:00:01.84

Peak level 94.0 %
Track quality 100.0 %
Test CRC E28C4090
Copy CRC E28C4090
Track not present in AccurateRip database
Copy OK

Track 16

Filename K:CaptureCDex Compress[16] Gary U.S. Bonds - Genie In The Jug.wav

Pre-gap length 0:00:00.93

Peak level 97.2 %
Track quality 100.0 %
Test CRC B302B989
Copy CRC B302B989
Track not present in AccurateRip database
Copy OK

Track 17

Filename K:CaptureCDex Compress[17] Dan Penn & Donnie Fritts - Adios Amigo.wav

Pre-gap length 0:00:01.70

Peak level 98.4 %
Track quality 100.0 %
Test CRC 39FF96CF
Copy CRC 39FF96CF
Track not present in AccurateRip database
Copy OK


None of the tracks are present in the AccurateRip database

No errors occurred

End of status report

foobar2000 1.2 / Dynamic Range Meter 1.1.1
log date: 2015-01-23 00:41:18

--------------------------------------------------------------------------------
Analyzed: Chuck Jackson & Mark Knopfler / Adios Amigo: A Tribute To Arthur Alexander (1)
Corey Glover / Adios Amigo: A Tribute To Arthur Alexander (2)
Dan Penn & Donnie Fritts / Adios Amigo: A Tribute To Arthur Alexander (3)
Elvis Costello / Adios Amigo: A Tribute To Arthur Alexander (4)
Felix Cavaliere & Veronica / Adios Amigo: A Tribute To Arthur Alexander (5)
Frank Black & Gary U.S. Bonds / Adios Amigo: A Tribute To Arthur Alexander (6)
Frank Black / Adios Amigo: A Tribute To Arthur Alexander (7)
Gary U.S. Bonds / Adios Amigo: A Tribute To Arthur Alexander (8)
Graham Parker / Adios Amigo: A Tribute To Arthur Alexander (9)
John Prine / Adios Amigo: A Tribute To Arthur Alexander (10)
Marshall Crenshaw / Adios Amigo: A Tribute To Arthur Alexander (11)
Nick Lowe / Adios Amigo: A Tribute To Arthur Alexander (12)
Pookie Hudson / Adios Amigo: A Tribute To Arthur Alexander (13)
Robert Plant / Adios Amigo: A Tribute To Arthur Alexander (14)
Roger McGuinn / Adios Amigo: A Tribute To Arthur Alexander (15)
Sir Mack Rice & Michael Hill / Adios Amigo: A Tribute To Arthur Alexander (16)
Zucchero / Adios Amigo: A Tribute To Arthur Alexander (17)
--------------------------------------------------------------------------------

DR Peak RMS Duration Track
--------------------------------------------------------------------------------
DR14 -0.40 dB -16.66 dB 3:42 05/17-You Better Move On
DR13 -0.29 dB -15.52 dB 2:55 10/17-Johnny Heartbreak
DR15 -0.13 dB -18.08 dB 2:26 17/17-Adios Amigo
DR10 -0.29 dB -13.29 dB 2:18 02/17-Sally Sue Brown
DR12 -0.67 dB -14.17 dB 3:04 14/17-I Love You So
DR12 -1.07 dB -15.23 dB 3:01 13/17-Go Home Girl
DR14 -0.53 dB -16.69 dB 2:24 06/17-Old John Amos
DR13 -0.25 dB -15.64 dB 2:37 16/17-Genie In The Jug
DR13 -0.45 dB -16.41 dB 3:12 04/17-Every Day I Have To Cry
DR13 -0.76 dB -16.07 dB 3:08 09/17-Lonely Just Like Me
DR12 -0.07 dB -15.63 dB 2:34 07/17-I'd Do It Over Again
DR14 -0.07 dB -16.35 dB 3:03 11/17-In The Middle Of It All
DR14 -0.53 dB -18.02 dB 4:21 15/17-Baby Can't You Wait
DR12 -0.07 dB -15.23 dB 4:02 03/17-If It's Really Got To Be This Way
DR12 -0.07 dB -13.78 dB 3:09 01/17-Anna
DR14 -0.37 dB -16.35 dB 3:35 08/17-Let' Think About It
DR10 -0.48 dB -12.00 dB 4:00 12/17-From Now On
--------------------------------------------------------------------------------

Number of tracks: 17
Official DR value: DR13

Samplerate: 44100 Hz
Channels: 2
Bits per sample: 16
Bitrate: 828 kbps
Codec: FLAC
================================================================================




All thanks to original releaser - powerpopmp3





Password: designol