The Three Sounds - Eight Classic Albums (2011) 4CD Box Set [Digitally Remastered]


The Three Sounds - Eight Classic Albums (2011) 4CD Box Set [Digitally Remastered]
EAC | FLAC | Image (Cue&Log) ~ 1.7 Gb | Mp3 (CBR320) ~ 724 Mb | Scans ~ 36 Mb
Genre: Hard Bop, Post-Bop, Soul Jazz | Label: Real Gone Jazz | # RGJCD285 | Time: 05:05:55

Four CD set containing eight albums from the Jazz greats: 'Introducing The Three Sounds' (1958), 'Branching Out' (With Nat Adderly) (1958), 'Introducing The Three Sounds Vol. 2' (1958), 'Bottoms Up!' (1959), 'Moods' (1960), 'Hey There' (1961), 'Here We Come' (1960) and 'Blue Hour' (1960).


Since purchasing this collection it's been a part of one of my most listened to playlists. My only complaint - and it's a minor one - is the the tracks on Disc 1 were listed on the CD as Track n instead of the actual track name (where 'n' is the track number). Since I listen to most of my music on an MP3 device correcting that before ripping was a minor inconvenience.

Here is what you get and my thoughts on each album. Note: while there are no sound samples on this page, many of the pages to which I link below have them:

Disc 1
Introducing The Three Sounds. Their inaugural album that was recorded at Rudy van Gelder's Hackensack, NJ studio in September 1958. From their first album they were different than other circa 1958 piano trios in that they were more aggressive and propulsive. The first eight tracks from the original release are on this disc - see Disc 2 below for the rest.

Branching Out. This is a collaboration with Nat Adderly. The sound samples on the linked page will give a strong hint about the music. However, although I love the Three Sounds and think that Gene Harris' piano, Andrew Simpkins' bass and Bill Dowdy's drums provide perfect backing for Nat (and Johnny Griffin), it's Nat who makes this album magical. It should go without saying that I am in the process of purchasing a lot more of Nat's work!

Disc 2
Introducing The Three Sounds Volume 2 (the tracks comprise the second half of Introducing The Three Sounds).

Bottoms Up!. This is the group's second album, recorded in three sessions between September 1958 and February 1959 (and released in 1959.) Most of the album is up-tempo and even the ballads are swinging so much that they will energize you. My attention was grabbed from the very first track, Besame Mucho, which had me tapping my feet. When the next track downshifted into a much slower tempo there was still such a strong sense of swing that my feet were still tapping. The changes in that song were interesting and I was sold on the album from that point on.

Disc 3
Moods. Recorded on June 28, 1960 at Rudy van Gelder's studio and released later that year. I wrote a long review in that linked page which would be redundant to cross post here.

Hey There. While much of this album is bright, up-tempo material with a hint of stride piano, the ballads are gorgeous. Little Girl Blue was so beautifully done it nearly brought tears. It had that tinkling, mountain stream quality that Bill Evans brought to Kind of Blue. Street of Dreams was slightly brighter, but still languorously flowed as though drifting into a dream.

Disc 4
Here We Come. Some folks claim that if you've heard any album by this talented trio you've heard them all. I disagree. Their sound subtly evolved from their 1958 inaugural album, Introducing The Three Sounds, to this one - and beyond. This album was recorded on December 12 and 13, 1960, at Rudy van Gelder's studio in Hackensack, NJ. Blue Note released this album in 1961. I did an indepth review of each track on the linked page, which describes this album the best I can.

Blue Hour. Recorded mid point in Three Sounds' tenure with Blue Note, this is their third album in which they collaborate with another artist since signing with Blue Note in 1958. While the trio was ostensible a jazz ensemble, Harris was first and foremost a blues musician who could play jazz with the best of them. His bluesy flavoring gave them a distinct - almost Kansas City - sound, and pairing them with Stanley Turrentine's bluesy playing makes this album worth owning. My complete review of this particular album is on the linked page.

If you are a Three Sounds fan you've surely checked out the individual prices of the albums that comprise this set. The total cost of buying these individually will literally take your breath away (or trigger a heart attack depending on how old you are!) My set is one of my personal treasures.

Mike Tarrani, Amazon.com







---------------------------------------------------------------------------------



CD1: Introducing The 3 Sounds (1958) / Branching Out (1958)
EAC | FLAC | Image (Cue&Log) ~ 435 Mb | Mp3 (CBR320) ~ 187 Mb | Time: 01:17:52

Introducing The Three Sounds (1958):

What's remarkable about Introducing the Three Sounds is how the trio's lightly swinging sound arrived fully intact. From the basis of this album, it sounds as if pianist Gene Harris, bassist Andrew Simpkins, and drummer William Dowdy have been playing together for years. There's empathetic, nearly intuitive interplay between the three musicians, and Harris's deft style already sounds mature and entirely distinctive. There's no question that this music is easy to listen to, but dismissing it because of that would be wrong -- there's genuine style in their light touch and in Harris' bluesy compositions. The Three Sounds never really deviated from the sound they established on Introducing, but that's one of the things that is so remarkable -- they were fully formed on their very first album. Even if it was a peak, it wasn't the only peak in their career. They would often match the heights of this album, but this debut remains a shining jewel in their catalog, and the way to become acquainted with their sound.

Stephen Thomas Erlewine, Allmusic.com


Branching Out (1958) (with Nat Adderly):

Cornetist Nat Adderley's debut for Riverside (reissued on CD in the OJC series) was recorded about a year before he permanently rejoined his brother Cannonball Adderley's Quintet. Teamed with tenor-saxophonist Johnny Griffin and the Three Sounds (the popular soul jazz rhythm section comprised of pianist Gene Harris, bassist Andy Simpkins and drummer Bill Dowdy), Nat is in excellent form on such tunes as "Well You Needn't," "Don't Get Around Much Anymore" and "I Never Knew" in addition to two of his lesser-known originals. Adderley and Griffin made for an exciting frontline.

Scott Yanow, Allmusic.com


Tracklist:

Introducing The Three Sounds (1958):

01. Tenderly (04:36)
02. Willow Weep For Me (04:41)
03. Both Sides (04:40)
04. Blue Bells (04:25)
05. It's Nice (04:38)
06. Goin' Home (03:53)
07. Woody 'N You (07:10)
08. O Sole Mio (03:56)

Branching Out (1958) (with Nat Adderly):

09. Sister Caroline (05:49)
10. Well You Needn't (08:25)
11. Don't Get Around Much Anymore (04:35)
12. I've Got Plenty Of Nothin' (05:01)
13. Branching Out (06:48)
14. I Never Knew I Could Love Anybody (04:43)
15. Warm Blue Stream (04:23)


Exact Audio Copy V0.99 prebeta 5 from 4. May 2009

Отчёт EAC об извлечении, выполненном 16. мая 2014, 14:09

The Three Sounds / 8 Classic Albums (CD 1/4)

Дисковод: ASUS DRW-24F1ST a Adapter: 0 ID: 1

Режим чтения : Достоверность
Использование точного потока : Да
Отключение кэша аудио : Да
Использование указателей C2 : Нет

Коррекция смещения при чтении : 6
Способность читать области Lead-in и Lead-out : Нет
Заполнение пропущенных сэмплов тишиной : Да
Удаление блоков с тишиной в начале и конце : Нет
При вычислениях CRC использовались нулевые сэмплы : Да
Интерфейс : Встроенный Win32-интерфейс для Win NT/2000

Выходной формат : Пользовательский кодировщик
Выбранный битрейт : 768 kBit/s
Качество : Высокий
Добавление ID3-тэга : Нет
Утилита сжатия : D:5. Other1. ProgrammesExact Audio CopyFLACFLAC.EXE
Дополнительные параметры : -6 -V -T "ARTIST=%a" -T "TITLE=%t" -T "ALBUM=%g" -T "DATE=%y" -T "TRACKNUMBER=%n" -T "GENRE=%m" -T "COMMENT=%e" %s -o %d


TOC извлечённого CD

Трек | Старт | Длительность | Начальный сектор | Конечный сектор
---------------------------------------------------------------------
1 | 0:00.00 | 4:36.34 | 0 | 20733
2 | 4:36.34 | 4:41.49 | 20734 | 41857
3 | 9:18.08 | 4:40.20 | 41858 | 62877
4 | 13:58.28 | 4:25.37 | 62878 | 82789
5 | 18:23.65 | 4:38.44 | 82790 | 103683
6 | 23:02.34 | 3:53.62 | 103684 | 121220
7 | 26:56.21 | 7:10.55 | 121221 | 153525
8 | 34:07.01 | 3:56.39 | 153526 | 171264
9 | 38:03.40 | 5:49.27 | 171265 | 197466
10 | 43:52.67 | 8:25.23 | 197467 | 235364
11 | 52:18.15 | 4:35.53 | 235365 | 256042
12 | 56:53.68 | 5:01.40 | 256043 | 278657
13 | 61:55.33 | 6:48.31 | 278658 | 309288
14 | 68:43.64 | 4:43.52 | 309289 | 330565
15 | 73:27.41 | 4:23.40 | 330566 | 350330


Характеристики диапазона извлечения и сообщения об ошибках

Выбранный диапазон

Имя файла D:The Three Sounds - Eight Classic AlbumsCD1The Three Sounds - 8 Classic Albums (CD 1 4).wav

Пиковый уровень 100.0 %
Качество диапазона 100.0 %
CRC теста 47C8051E
CRC копии 47C8051E
Копирование... OK

Ошибок не произошло


AccurateRip: сводка

Трек 1 точность не определена (достоверность 6) [428AABD2], AccurateRip вернул [C9F9E6CE]
Трек 2 точность не определена (достоверность 6) [92F37C94], AccurateRip вернул [15327955]
Трек 3 точность не определена (достоверность 6) [CBAF945D], AccurateRip вернул [0F35BFD9]
Трек 4 точность не определена (достоверность 6) [5952A1F6], AccurateRip вернул [20D6E812]
Трек 5 точность не определена (достоверность 6) [C0C8E912], AccurateRip вернул [BB8471E2]
Трек 6 точность не определена (достоверность 6) [A6DB6FB9], AccurateRip вернул [FAEE5C0C]
Трек 7 точность не определена (достоверность 6) [77EBDF0C], AccurateRip вернул [EF6FA530]
Трек 8 точность не определена (достоверность 6) [926F6342], AccurateRip вернул [EA9F3E0E]
Трек 9 точность не определена (достоверность 6) [5BEDE91C], AccurateRip вернул [855D9963]
Трек 10 точность не определена (достоверность 6) [A27EC4C6], AccurateRip вернул [995F9382]
Трек 11 точность не определена (достоверность 6) [810A8616], AccurateRip вернул [D78C9F4A]
Трек 12 точность не определена (достоверность 6) [00FD67CD], AccurateRip вернул [7DDBCBB0]
Трек 13 точность не определена (достоверность 6) [9635CC3C], AccurateRip вернул [A4E976AF]
Трек 14 точность не определена (достоверность 6) [B40ECB8D], AccurateRip вернул [F76FF3D5]
Трек 15 точность не определена (достоверность 6) [1127F775], AccurateRip вернул [B3A384A9]

Ни один трек не прошёл проверки на точность
В вашей базе может быть иной вариант штамповки диска

Конец отчёта

foobar2000 1.2 / Dynamic Range Meter 1.1.1
log date: 2015-01-30 01:15:43

--------------------------------------------------------------------------------
Analyzed: The Three Sounds / 8 Classic Albums (CD 1/4)
--------------------------------------------------------------------------------

DR Peak RMS Duration Track
--------------------------------------------------------------------------------
DR14 -1.49 dB -17.58 dB 4:36 01-Tenderly
DR14 -1.23 dB -18.02 dB 4:42 02-Willow Weep For Me
DR14 -1.09 dB -17.66 dB 4:40 03-Both Sides
DR14 -3.04 dB -20.29 dB 4:25 04-Blue Bells
DR14 -1.20 dB -18.27 dB 4:39 05-It's Nice
DR14 -1.29 dB -19.35 dB 3:54 06-Goin' Home
DR13 -1.94 dB -18.42 dB 7:11 07-Woody 'N You
DR14 -2.51 dB -18.90 dB 3:57 08-O Sole Mio
DR13 -0.05 dB -15.25 dB 5:49 09-Sister Caroline
DR11 0.00 dB -13.67 dB 8:25 10-Well You Needn't
DR11 -0.01 dB -13.30 dB 4:36 11-Don't Get Around Much Anymore
DR12 -0.13 dB -14.35 dB 5:02 12-I've Got Plenty Of Nothin'
DR10 0.00 dB -12.90 dB 6:48 13-Branching Out
DR11 0.00 dB -13.70 dB 4:44 14-I Never Knew I Could Love Anybody
DR11 -0.30 dB -14.89 dB 4:24 15-Warm Blue Stream
--------------------------------------------------------------------------------

Number of tracks: 15
Official DR value: DR13

Samplerate: 44100 Hz
Channels: 2
Bits per sample: 16
Bitrate: 746 kbps
Codec: FLAC
================================================================================


---------------------------------------------------------------------------------



CD2: Introducing The 3 Sounds vol. 2 (1958) / Bottoms Up! (1959)
EAC | FLAC | Image (Cue&Log) ~ 447 Mb | Mp3 (CBR320) ~ 166 Mb | Time: 01:09:07

Introducing The 3 Sounds 2 (1958):

During the '70s, the Japanese division of Blue Note began issuing previously unreleased sessions that had sat in the vaults for decades. Most of these records were comprised of entirely unheard sessions. Others, like Introducing the Three Sounds, Vol. 2, were comprised of outtakes and alternate takes from beloved Blue Note albums. Vol. 2 contains five songs that were recorded during the Introducing sessions but remained unreleased, as well as an alternate take of "Goin' Home." Stylistically, this music is identical to the initial release (or any other Three Sounds album, for that matter), and it should please any fan of the trio, but there's little reason to seek this record out, since all of the material was released as bonus tracks on the CD reissue of Introducing the Three Sounds.

Stephen Thomas Erlewine, Allmusic.com


Bottoms Up! (1959):

The second record by the Three Sounds (which, like too many of their recordings, has yet to be reissued on CD in the U.S.) features the increasingly popular group in prime form. Pianist Gene Harris, bassist Andy Simpkins and drummer Bill Dowdy are in top form performing their brand of funky jazz, which left plenty of room for inventive solos along with the percolating grooves. On this set, the trio plays seven standards (including "Besame Mucho," "Love Walked In" and "I Could Write a Book"), plus the original "Jinne Lou." Well worth searching for.

Scott Yanow, Allmusic.com


Tracklist:

Introducing The 3 Sounds vol. 2 (1958):

01. Bobby (04:26)
02. Mo-Ge (04:23)
03. It Might As Well Be Spring (06:33)
04. Soft Touch (03:43)
05. Don't Get Around Much Anymore (04:39)
06. Goin' Home ALTERNATE MASTER (05:37)

Bottoms Up! (1959):

07. Besame Mucho (04:01)
08. Angel Eyes (05:10)
09. Time After Time (04:50)
10. Love Walked In (06:04)
11. I Could Write A Book (04:53)
12. Jinnie Lou (04:53)
13. Nothing Ever Changes My Love For You (03:06)
14. Falling In Love With Love (06:44)


Exact Audio Copy V0.99 prebeta 5 from 4. May 2009

Отчёт EAC об извлечении, выполненном 16. мая 2014, 15:08

The Three Sounds / 8 Classic Albums (CD 2/4)

Дисковод: ASUS DRW-24F1ST a Adapter: 0 ID: 1

Режим чтения : Достоверность
Использование точного потока : Да
Отключение кэша аудио : Да
Использование указателей C2 : Нет

Коррекция смещения при чтении : 6
Способность читать области Lead-in и Lead-out : Нет
Заполнение пропущенных сэмплов тишиной : Да
Удаление блоков с тишиной в начале и конце : Нет
При вычислениях CRC использовались нулевые сэмплы : Да
Интерфейс : Встроенный Win32-интерфейс для Win NT/2000

Выходной формат : Пользовательский кодировщик
Выбранный битрейт : 768 kBit/s
Качество : Высокий
Добавление ID3-тэга : Нет
Утилита сжатия : D:5. Other1. ProgrammesExact Audio CopyFLACFLAC.EXE
Дополнительные параметры : -6 -V -T "ARTIST=%a" -T "TITLE=%t" -T "ALBUM=%g" -T "DATE=%y" -T "TRACKNUMBER=%n" -T "GENRE=%m" -T "COMMENT=%e" %s -o %d


TOC извлечённого CD

Трек | Старт | Длительность | Начальный сектор | Конечный сектор
---------------------------------------------------------------------
1 | 0:00.00 | 4:26.32 | 0 | 19981
2 | 4:26.32 | 4:23.29 | 19982 | 39735
3 | 8:49.61 | 6:33.74 | 39736 | 69284
4 | 15:23.60 | 3:43.22 | 69285 | 86031
5 | 19:07.07 | 4:39.33 | 86032 | 106989
6 | 23:46.40 | 5:37.67 | 106990 | 132331
7 | 29:24.32 | 4:01.33 | 132332 | 150439
8 | 33:25.65 | 5:10.61 | 150440 | 173750
9 | 38:36.51 | 4:50.32 | 173751 | 195532
10 | 43:27.08 | 6:04.15 | 195533 | 222847
11 | 49:31.23 | 4:53.13 | 222848 | 244835
12 | 54:24.36 | 4:53.17 | 244836 | 266827
13 | 59:17.53 | 3:06.14 | 266828 | 280791
14 | 62:23.67 | 6:44.02 | 280792 | 311093


Характеристики диапазона извлечения и сообщения об ошибках

Выбранный диапазон

Имя файла D:The Three Sounds - Eight Classic AlbumsCD2The Three Sounds - 8 Classic Albums (CD 2 4).wav

Пиковый уровень 94.4 %
Качество диапазона 100.0 %
CRC теста 3DAC846F
CRC копии 3DAC846F
Копирование... OK

Ошибок не произошло


AccurateRip: сводка

Трек 1 точное извлечение (доверие 3) [C895CF47]
Трек 2 точное извлечение (доверие 3) [1090C80A]
Трек 3 точное извлечение (доверие 3) [3D03EF50]
Трек 4 точное извлечение (доверие 3) [E947F45A]
Трек 5 точное извлечение (доверие 3) [18ECA7E9]
Трек 6 точное извлечение (доверие 3) [22106F15]
Трек 7 точное извлечение (доверие 3) [8B4D787B]
Трек 8 точное извлечение (доверие 3) [83643C1E]
Трек 9 точное извлечение (доверие 3) [D0421765]
Трек 10 точное извлечение (доверие 2) [4B4196C0]
Трек 11 точное извлечение (доверие 2) [9377CCE8]
Трек 12 точность не определена (достоверность 9) [D3D99093], AccurateRip вернул [75393E3A]
Трек 13 точность не определена (достоверность 9) [150D0FDD], AccurateRip вернул [E9BACDC2]
Трек 14 точность не определена (достоверность 8) [77452C36], AccurateRip вернул [C7CDE775]

11 трек(и) скопированы точно
3 трек(и) не удалось проверить на точность

Некоторые треки не прошли проверку на точность

Конец отчёта

foobar2000 1.2 / Dynamic Range Meter 1.1.1
log date: 2015-01-30 01:16:21

--------------------------------------------------------------------------------
Analyzed: The Three Sounds / 8 Classic Albums (CD 2/4)
--------------------------------------------------------------------------------

DR Peak RMS Duration Track
--------------------------------------------------------------------------------
DR12 -3.44 dB -17.76 dB 4:26 01-Bobby
DR13 -1.33 dB -17.00 dB 4:23 02-Mo-Ge
DR13 -1.91 dB -19.86 dB 6:34 03-It Might As Well Be Spring
DR13 -0.84 dB -16.89 dB 3:43 04-Soft Touch
DR14 -1.43 dB -18.80 dB 4:39 05-Don't Get Around Much Anymore
DR14 -1.65 dB -19.45 dB 5:38 06-Goin' Home ALTERNATE MASTER
DR10 -0.50 dB -11.47 dB 4:01 07-Besame Mucho
DR10 -0.50 dB -12.80 dB 5:11 08-Angel Eyes
DR13 -0.50 dB -15.01 dB 4:50 09-Time After Time
DR11 -0.50 dB -12.72 dB 6:04 10-Love Walked In
DR12 -0.50 dB -14.15 dB 4:53 11-I Could Write A Book
DR11 -0.50 dB -13.47 dB 4:53 12-Jinnie Lou
DR10 -0.50 dB -12.35 dB 3:06 13-Nothing Ever Changes My Love For You
DR9 -0.50 dB -11.30 dB 6:44 14-Falling In Love With Love
--------------------------------------------------------------------------------

Number of tracks: 14
Official DR value: DR12

Samplerate: 44100 Hz
Channels: 2
Bits per sample: 16
Bitrate: 862 kbps
Codec: FLAC
================================================================================


---------------------------------------------------------------------------------



CD3: Moods (1960) / Hey There (1961)
EAC | FLAC | Image (Cue&Log) ~ 450 Mb | Mp3 (CBR320) ~ 187 Mb | Time: 01:17:42

Moods (1960):

The Three Sounds open their signature sound a bit on the romantic Moods. They retain the same light touch that made their early albums so enjoyable, but they add more textures to the mix. Light Latin rhythms permeate Moods, from the inventive reworking of Cole Porter's "Love for Sale" to Harris' original "Tammy's Breeze." Like its predecessor, Feelin' Good, this record has a bluesy, soulful streak to its personality, as evidenced by the mellow take on "On Green Dolphin Street," the hep swing of "Loose Walk," and the infectious cover of Ellington's "I'm Beginning to See the Light." Occasionally, The Three Sounds play it a little too cool -- while the slow, relaxed "Things Ain't What They Used to Be" manages to be engaging, "Li'l Darlin'" slows down to a crawl -- but on the whole, Moods is an endearing collection of appealing mainstream jazz.

Stephen Thomas Erlewine, Allmusic.com


Hey There (1961):

Hey There! finds the Three Sounds keeping themselves slightly in check, turning in snappy, concise versions of jazz and pop standards, as well as jumping originals from Gene Harris. The shorter song lengths mean that the trio emphasizes melody even more than usual, but that's hardly a bad thing. Each Three Sounds record thrives on laidback swing and deft melodic flourishes. By bringing these elements to the forefront, they highlight their accessibility, but that results in a thoroughly enjoyable record. Their technical prowess is better heard on records where they stretch out a bit more, but Hey There! is another artist record from the most consistently entertaining artist on Blue Note's roster.

Stephen Thomas Erlewine, Allmusic.com


Tracklist:

Moods (1960):

01. Love For Sale (06:35)
02. Things Ain't Wha They Used To Be (08:54)
03. On Green Dolphin Street (05:32)
04. Loose Walk (04:54)
05. Li'l Darlin' (04:50)
06. I'm Beginning To See The Light (02:28)
07. Tammy's Breeze (04:27)
08. Sandu (04:21)

Hey There (1961):

09. Sermonette (03:02)
10. You Are My Sunshine (03:04)
11. Little Girl Blue (05:18)
12. Dap's Groove (03:16)
13. Hey There (03:19)
14. Nothin' But The Blues (05:01)
15. Stompin' At The Savoy (04:56)
16. Street Of Dreams (03:17)
17. The Masquerade Is Over (04:21)


Exact Audio Copy V0.99 prebeta 5 from 4. May 2009

Отчёт EAC об извлечении, выполненном 16. мая 2014, 19:57

The Three Sounds / 8 Classic Albums (CD 3/4)

Дисковод: ASUS DRW-24F1ST a Adapter: 0 ID: 1

Режим чтения : Достоверность
Использование точного потока : Да
Отключение кэша аудио : Да
Использование указателей C2 : Нет

Коррекция смещения при чтении : 6
Способность читать области Lead-in и Lead-out : Нет
Заполнение пропущенных сэмплов тишиной : Да
Удаление блоков с тишиной в начале и конце : Нет
При вычислениях CRC использовались нулевые сэмплы : Да
Интерфейс : Встроенный Win32-интерфейс для Win NT/2000

Выходной формат : Пользовательский кодировщик
Выбранный битрейт : 768 kBit/s
Качество : Высокий
Добавление ID3-тэга : Нет
Утилита сжатия : D:5. Other1. ProgrammesExact Audio CopyFLACFLAC.EXE
Дополнительные параметры : -6 -V -T "ARTIST=%a" -T "TITLE=%t" -T "ALBUM=%g" -T "DATE=%y" -T "TRACKNUMBER=%n" -T "GENRE=%m" -T "COMMENT=%e" %s -o %d


TOC извлечённого CD

Трек | Старт | Длительность | Начальный сектор | Конечный сектор
---------------------------------------------------------------------
1 | 0:00.00 | 6:35.67 | 0 | 29691
2 | 6:35.67 | 8:54.63 | 29692 | 69804
3 | 15:30.55 | 5:32.28 | 69805 | 94732
4 | 21:03.08 | 4:54.70 | 94733 | 116852
5 | 25:58.03 | 4:50.29 | 116853 | 138631
6 | 30:48.32 | 2:28.02 | 138632 | 149733
7 | 33:16.34 | 4:27.40 | 149734 | 169798
8 | 37:43.74 | 4:21.09 | 169799 | 189382
9 | 42:05.08 | 3:02.05 | 189383 | 203037
10 | 45:07.13 | 3:04.03 | 203038 | 216840
11 | 48:11.16 | 5:18.26 | 216841 | 240716
12 | 53:29.42 | 3:16.29 | 240717 | 255445
13 | 56:45.71 | 3:19.50 | 255446 | 270420
14 | 60:05.46 | 5:01.26 | 270421 | 293021
15 | 65:06.72 | 4:56.11 | 293022 | 315232
16 | 70:03.08 | 3:17.52 | 315233 | 330059
17 | 73:20.60 | 4:21.69 | 330060 | 349703


Характеристики диапазона извлечения и сообщения об ошибках

Выбранный диапазон

Имя файла D:The Three Sounds - Eight Classic AlbumsCD3The Three Sounds - 8 Classic Albums (CD 3 4).wav

Пиковый уровень 100.0 %
Качество диапазона 100.0 %
CRC теста A8DA1D49
CRC копии A8DA1D49
Копирование... OK

Ошибок не произошло


AccurateRip: сводка

Трек 1 точное извлечение (доверие 2) [27E176F8]
Трек 2 точное извлечение (доверие 2) [E89674F8]
Трек 3 точное извлечение (доверие 2) [B2C2FBE4]
Трек 4 точное извлечение (доверие 2) [959FA8E9]
Трек 5 точное извлечение (доверие 2) [55E071D7]
Трек 6 точное извлечение (доверие 2) [DE873CF3]
Трек 7 точное извлечение (доверие 2) [92075824]
Трек 8 точное извлечение (доверие 2) [64BEBC4C]
Трек 9 точное извлечение (доверие 2) [C7AFEF0D]
Трек 10 точное извлечение (доверие 2) [6FC2A7EB]
Трек 11 точное извлечение (доверие 2) [D5099C05]
Трек 12 точное извлечение (доверие 2) [F16B348B]
Трек 13 точное извлечение (доверие 2) [98EB6A15]
Трек 14 точное извлечение (доверие 2) [ED09804A]
Трек 15 точное извлечение (доверие 2) [F5997118]
Трек 16 точное извлечение (доверие 2) [EF204C8A]
Трек 17 точное извлечение (доверие 2) [70601E1E]

Все треки извлечены точно

Конец отчёта

foobar2000 1.2 / Dynamic Range Meter 1.1.1
log date: 2015-01-30 01:16:44

--------------------------------------------------------------------------------
Analyzed: The Three Sounds / 8 Classic Albums (CD 3/4)
--------------------------------------------------------------------------------

DR Peak RMS Duration Track
--------------------------------------------------------------------------------
DR11 0.00 dB -13.66 dB 6:36 01-Love For Sale
DR11 0.00 dB -14.20 dB 8:55 02-Things Ain't Wha They Used To Be
DR13 0.00 dB -15.31 dB 5:32 03-On Green Dolphin Street
DR12 0.00 dB -13.81 dB 4:55 04-Loose Walk
DR12 0.00 dB -16.04 dB 4:50 05-Li'l Darlin'
DR12 0.00 dB -14.92 dB 2:28 06-I'm Beginning To See The Light
DR12 0.00 dB -14.20 dB 4:28 07-Tammy's Breeze
DR13 0.00 dB -14.35 dB 4:21 08-Sandu
DR15 -0.94 dB -17.81 dB 3:02 09-Sermonette
DR14 -0.41 dB -17.55 dB 3:04 10-You Are My Sunshine
DR15 -1.21 dB -21.71 dB 5:18 11-Little Girl Blue
DR15 -1.59 dB -19.68 dB 3:16 12-Dap's Groove
DR14 -1.67 dB -18.28 dB 3:20 13-Hey There
DR14 -1.37 dB -18.08 dB 5:01 14-Nothin' But The Blues
DR14 -0.70 dB -20.04 dB 4:56 15-Stompin' At The Savoy
DR13 -1.29 dB -17.87 dB 3:18 16-Street Of Dreams
DR13 -1.78 dB -18.24 dB 4:22 17-The Masquerade Is Over
--------------------------------------------------------------------------------

Number of tracks: 17
Official DR value: DR13

Samplerate: 44100 Hz
Channels: 2
Bits per sample: 16
Bitrate: 772 kbps
Codec: FLAC
================================================================================


---------------------------------------------------------------------------------



The 3 Sounds CD4 Here We Come (1960) / Blue Hour (1960) with Stanley Turrentine
EAC | FLAC | Image (Cue&Log) ~ 426 Mb | Mp3 (CBR320) ~ 183 Mb | Time: 01:16:13

Here We Come (1960):

Here We Come is a typically classy and entertaining collection from the Three Sounds. The group stretches out on these pop standards and Gene Harris originals a little more than normal, which gives the pianist an opportunity to flaunt his underrated chops. Stylistically, nothing has changed -- this is still light, deftly swinging mainstream jazz -- but with songs like "Summertime" and "Our Love Is Here to Stay," Here We Come has a bit of a romantic feeling, which is certainly welcome. Of course, that's balanced by the jumping title track and "Poinciana," among others, but overall the album has a warm, relaxed vibe that makes the romanticism particularly welcoming.

Stephen Thomas Erlewine, Allmusic.com


Blue Hour (1960):

Stanley Turrentine & the Three Sounds were initially featured together on an album called Blue Hour, which was a very relaxed and bluesy release. The spaciousness of "I Want a Little Girl" makes the listener savor every note, while "Gee Baby, Ain't I Good to You" is played with an almost identical tempo and feeling. Gene Harris' "Blue Riff" picks up the pace a good bit, before "Since I Fell for You" and "Willow Weep for Me" once again slow the proceedings back to a late-night feeling. Turrentine's tenor sax is in top form, while Harris is the consummate blues pianist in his supporting role. After the first CD reissue of Blue Hour went out of print, it was expanded into a two-CD set by Blue Note, with eight new unissued or alternate takes added on the second disc. It is apparent right away that the original producer Alfred Lion was correct in withholding most of these recordings from release. As well as Turrentine plays during "Blues in the Closet," the rhythm section seems a bit stiff. Harris' piano is too much in the background on "Just in Time," while the pianist's composition "Blue Hour" doesn't seem to be fully formed as a blues vehicle. "Strike Up the Band" is the one truly up-tempo recording present on this release, but probably wasn't issued previously because it is faded prematurely and it was so different from the producer's concept for the originally conceived release. Regardless, since both Stanley Turrentine and Gene Harris passed away within a year of each other in 2000, having additional music made available featuring these two fine musicians is most welcome.

Ken Dryden, Allmusic.com


Tracklist:

Here We Come (1960):

01. Now's The Time (05:38)
02. Just Squeeze Me (But Don't Tease Me) (04:18)
03. Here We Come (04:38)
04. Our Love Is Here To Stay (04:22)
05. Broadway (03:56)
06. Summertime (05:35)
07. Poniciana (05:28)
08. Sonnymoon For Two (04:44)

Blue Hour (1960) with Stanley Turrentine:

09. I Want A Little Girl (07:03)
10. Gee Baby, Ain't I Good To You (05:22)
11. Blue Rift (06:25)
12. Since I Fell For You (08:46)
13. Willow Weep For Me (09:54)


Exact Audio Copy V0.99 prebeta 5 from 4. May 2009

Отчёт EAC об извлечении, выполненном 16. мая 2014, 20:21

The Three Sounds / 8 Classic Albums (CD 4/4)

Дисковод: ASUS DRW-24F1ST a Adapter: 0 ID: 1

Режим чтения : Достоверность
Использование точного потока : Да
Отключение кэша аудио : Да
Использование указателей C2 : Нет

Коррекция смещения при чтении : 6
Способность читать области Lead-in и Lead-out : Нет
Заполнение пропущенных сэмплов тишиной : Да
Удаление блоков с тишиной в начале и конце : Нет
При вычислениях CRC использовались нулевые сэмплы : Да
Интерфейс : Встроенный Win32-интерфейс для Win NT/2000

Выходной формат : Пользовательский кодировщик
Выбранный битрейт : 768 kBit/s
Качество : Высокий
Добавление ID3-тэга : Нет
Утилита сжатия : D:5. Other1. ProgrammesExact Audio CopyFLACFLAC.EXE
Дополнительные параметры : -6 -V -T "ARTIST=%a" -T "TITLE=%t" -T "ALBUM=%g" -T "DATE=%y" -T "TRACKNUMBER=%n" -T "GENRE=%m" -T "COMMENT=%e" %s -o %d


TOC извлечённого CD

Трек | Старт | Длительность | Начальный сектор | Конечный сектор
---------------------------------------------------------------------
1 | 0:00.00 | 5:38.26 | 0 | 25375
2 | 5:38.26 | 4:18.33 | 25376 | 44758
3 | 9:56.59 | 4:38.02 | 44759 | 65610
4 | 14:34.61 | 4:22.46 | 65611 | 85306
5 | 18:57.32 | 3:56.07 | 85307 | 103013
6 | 22:53.39 | 5:35.25 | 103014 | 128163
7 | 28:28.64 | 5:28.07 | 128164 | 152770
8 | 33:56.71 | 4:44.26 | 152771 | 174096
9 | 38:41.22 | 7:03.03 | 174097 | 205824
10 | 45:44.25 | 5:22.11 | 205825 | 229985
11 | 51:06.36 | 6:25.37 | 229986 | 258897
12 | 57:31.73 | 8:46.29 | 258898 | 298376
13 | 66:18.27 | 9:54.74 | 298377 | 343000


Характеристики диапазона извлечения и сообщения об ошибках

Выбранный диапазон

Имя файла D:The Three Sounds - Eight Classic AlbumsCD4The Three Sounds - 8 Classic Albums (CD 4 4).wav

Пиковый уровень 100.0 %
Качество диапазона 100.0 %
CRC теста B9AED630
CRC копии B9AED630
Копирование... OK

Ошибок не произошло


AccurateRip: сводка

Трек 1 точность не определена (достоверность 6) [C87B1ABB], AccurateRip вернул [A6492B2E]
Трек 2 точность не определена (достоверность 6) [6BE046E6], AccurateRip вернул [36B985B8]
Трек 3 точность не определена (достоверность 6) [B7EC5A70], AccurateRip вернул [D2622F0F]
Трек 4 точность не определена (достоверность 6) [41CAD02D], AccurateRip вернул [F13A8773]
Трек 5 точность не определена (достоверность 6) [0C2B6308], AccurateRip вернул [A25D3EED]
Трек 6 точность не определена (достоверность 6) [2196FE26], AccurateRip вернул [677BBEF8]
Трек 7 точность не определена (достоверность 6) [6A754F8C], AccurateRip вернул [64A8DE90]
Трек 8 точность не определена (достоверность 6) [CFEB1982], AccurateRip вернул [7FA78A1E]
Трек 9 точность не определена (достоверность 6) [7C874773], AccurateRip вернул [912EED11]
Трек 10 точность не определена (достоверность 6) [0CA1B04C], AccurateRip вернул [4387B67D]
Трек 11 точность не определена (достоверность 6) [FA7A2623], AccurateRip вернул [82101250]
Трек 12 точность не определена (достоверность 5) [9A80BC82], AccurateRip вернул [537A348F]
Трек 13 точность не определена (достоверность 4) [2063A510], AccurateRip вернул [F5B128EF]

Ни один трек не прошёл проверки на точность
В вашей базе может быть иной вариант штамповки диска

Конец отчёта

foobar2000 1.2 / Dynamic Range Meter 1.1.1
log date: 2015-01-30 01:17:07

--------------------------------------------------------------------------------
Analyzed: The Three Sounds / 8 Classic Albums (CD 4/4)
--------------------------------------------------------------------------------

DR Peak RMS Duration Track
--------------------------------------------------------------------------------
DR13 0.00 dB -14.63 dB 5:38 01-Now's The Time
DR14 -0.29 dB -16.27 dB 4:18 02-Just Squeeze Me (But Don't Tease Me)
DR13 0.00 dB -15.62 dB 4:38 03-Here We Come
DR14 -0.30 dB -16.29 dB 4:23 04-Our Love Is Here To Stay
DR13 -0.09 dB -15.07 dB 3:56 05-Broadway
DR14 -0.16 dB -16.91 dB 5:35 06-Summertime
DR12 -0.13 dB -14.07 dB 5:28 07-Poniciana
DR12 -0.12 dB -15.11 dB 4:44 08-Sonnymoon For Two
DR14 0.00 dB -18.25 dB 7:03 09-I Want A Little Girl
DR14 -0.35 dB -18.53 dB 5:22 10-Gee Baby, Ain't I Good To You
DR14 -0.41 dB -17.31 dB 6:25 11-Blue Rift
DR16 0.00 dB -20.57 dB 8:46 12-Since I Fell For You
DR15 -0.51 dB -19.67 dB 9:55 13-Willow Weep For Me
--------------------------------------------------------------------------------

Number of tracks: 13
Official DR value: DR14

Samplerate: 44100 Hz
Channels: 2
Bits per sample: 16
Bitrate: 745 kbps
Codec: FLAC
================================================================================


---------------------------------------------------------------------------------


All thanks to original releaser - lukya




Password: designol