Вход в свой аккаунт

Или войдите через соц. сети

Blondie - Complete Chrysalis Records Collection 1976-1982 [2001 Remasters]


Blondie - Complete Chrysalis Records Collection 1976-1982 [2001 Remasters]
EAC Secure Rip | FLACx6 (Image + Cue + Log) - 2.33 GB | Complete Scans (Jpeg 600 dpi) 708 MB | MP3x6 (CBR320 Kbps) - 849 MB
New Wave, Punk Rock | Chrysalis Records | 333:31 minutes | Hosted on: NitroFlare

Blondie is an American rock band founded by singer Debbie Harry and guitarist Chris Stein. The band was a pioneer in the early American new wave and punk scenes of the mid-1970s. Its first two albums contained strong elements of these genres, and although successful in the United Kingdom and Australia, Blondie was regarded as an underground band in the United States until the release of Parallel Lines in 1978.


_______________________________________________________________________________________________________________




Blondie - Blondie (1976) [2001 Chrysalis Remaster]
FLAC (Image + Cue + Log) - 324 MB | Complete Scans (Jpeg 600 dpi) - 122 MB | MP3 (CBR320 Kbps) - 119 MB
Chrysalis Records | 72435-33596-2-1 | 46:27 minutes


Blondie is the eponymous debut album by American rock band Blondie.

“ If new wave was about reconfiguring and recontextualizing simple pop/rock forms of the '50s and '60s in new, ironic, and aggressive ways, then Blondie, which took the girl group style of the early and mid-'60s and added a '70s archness, fit right in. True punksters may have deplored the group early on (they never had the hip cachet of Talking Heads or even the Ramones), but Blondie's secret weapon, which was deployed increasingly over their career, was a canny pop straddle -- they sent the music up and celebrated it at the same time. So, for instance, songs like "X Offender" (their first single) and "In the Flesh" (their first hit, in Australia) had the tough-girl-with-a-tender-heart tone of the Shangri-Las (the disc was produced by Richard Gottehrer, who had handled the Angels ["My Boyfriend's Back"] among others, and Brill Building songwriter Ellie Greenwich even sang backup on "In the Flesh"), while going one step too far into hard-edged decadence -- that is, if you chose to see that. (The tag line of "Look Good in Blue," for example, went, "I could give you some head and shoulders to lie on.") The whole point was that you could take Blondie either way, and lead singer Deborah Harry's vocals, which combined rock fervor with a kiss-off quality, reinforced that, as did the band's energetic, trashy sound. This album, released on independent label Private Sound, was not a major hit, but it provided a template for the future. Reviewed by William Ruhlmann of allmusic.com ”


Exact Audio Copy V1.0 beta 2 from 29. April 2011

EAC extraction logfile from 16. September 2014, 18:10

Blondie / Blondie [2001 Chrysalis Remaster]

Used drive : HL-DT-STDVDRAM GH60N Adapter: 0 ID: 1

Read mode : Secure
Utilize accurate stream : Yes
Defeat audio cache : Yes
Make use of C2 pointers : No

Read offset correction : 667
Overread into Lead-In and Lead-Out : No
Fill up missing offset samples with silence : Yes
Delete leading and trailing silent blocks : No
Null samples used in CRC calculations : Yes
Used interface : Native Win32 interface for Win NT & 2000

Used output format : User Defined Encoder
Selected bitrate : 1024 kBit/s
Quality : High
Add ID3 tag : No
Command line compressor : C:Program Files (x86)Exact Audio CopyFlacflac.exe
Additional command line options : -V -5 -T "artist=%albumartist%" -T "title=%title%" -T "album=%albumtitle%" -T "date=%year%" -T "genre=%genre%" -T "tracknumber=%tracknr%" %source%


TOC of the extracted CD

Track | Start | Length | Start sector | End sector
---------------------------------------------------------
1 | 0:00.00 | 3:14.40 | 0 | 14589
2 | 3:14.40 | 2:07.52 | 14590 | 24166
3 | 5:22.17 | 2:33.10 | 24167 | 35651
4 | 7:55.27 | 2:55.43 | 35652 | 48819
5 | 10:50.70 | 2:39.72 | 48820 | 60816
6 | 13:30.67 | 3:39.53 | 60817 | 77294
7 | 17:10.45 | 3:22.00 | 77295 | 92444
8 | 20:32.45 | 3:22.62 | 92445 | 107656
9 | 23:55.32 | 3:41.40 | 107657 | 124271
10 | 27:36.72 | 2:33.03 | 124272 | 135749
11 | 30:10.00 | 3:34.12 | 135750 | 151811
12 | 33:44.12 | 2:20.48 | 151812 | 162359
13 | 36:04.60 | 2:16.55 | 162360 | 172614
14 | 38:21.40 | 2:12.02 | 172615 | 182516
15 | 40:33.42 | 3:13.53 | 182517 | 197044
16 | 43:47.20 | 2:38.65 | 197045 | 208959


Range status and errors

Selected range

Filename C:EACBlondie - (1976) Blondie [2001 Chrysalis Remaster]Blondie - Blondie [2001 Chrysalis Remaster].wav

Peak level 98.8 %
Extraction speed 1.9 X
Range quality 99.9 %
Test CRC A63B0B84
Copy CRC A63B0B84
Copy OK

No errors occurred


AccurateRip summary

Track 1 accurately ripped (confidence 25) [F75CCE00] (AR v2)
Track 2 accurately ripped (confidence 25) [16F07700] (AR v2)
Track 3 accurately ripped (confidence 25) [9D23C6A3] (AR v2)
Track 4 accurately ripped (confidence 25) [31BA99A4] (AR v2)
Track 5 accurately ripped (confidence 24) [6FBFD22F] (AR v2)
Track 6 accurately ripped (confidence 25) [4BCF9C57] (AR v2)
Track 7 accurately ripped (confidence 25) [03E6BA3E] (AR v2)
Track 8 accurately ripped (confidence 25) [4085E109] (AR v2)
Track 9 accurately ripped (confidence 25) [8F82C069] (AR v2)
Track 10 accurately ripped (confidence 26) [014D42E6] (AR v2)
Track 11 accurately ripped (confidence 26) [72D22A61] (AR v2)
Track 12 accurately ripped (confidence 25) [DFD7567B] (AR v2)
Track 13 accurately ripped (confidence 25) [5CB3B140] (AR v2)
Track 14 accurately ripped (confidence 25) [95567E8B] (AR v2)
Track 15 accurately ripped (confidence 25) [813C97F6] (AR v2)
Track 16 accurately ripped (confidence 25) [FEF35588] (AR v2)

All tracks accurately ripped

End of status report

==== Log checksum 6AADEB052D148BE4FE613082B6F1239E1D6F6DA366593E9C810365D6483EC731 ====


Track Listing

01. X Offender
02. Little Girl Lies
03. In The Flesh
04. Look Good In Blue
05. In The Sun
06. A Shark In Jets Clothing
07. Man Overboard
08. Rip Her To Shreds
09. Rifle Range
10. Kung Fu Girls
11. The Attack Of The Giant Ants

Bonus Tracks:

12. Out In The Streets (Demo)
13. The Thin Line (Demo)
14. Platinum Blonde (Demo)
15. X Offender (Single Version)
16. In The Sun (Single Version)


Album Released: December 1976
Remastered Album Released: September 11, 2001


foobar2000 1.3.2 / Dynamic Range Meter 1.1.0
log date: 2015-01-29 03:39:54

--------------------------------------------------------------------------------
Analyzed: Blondie / Blondie [2001 Chrysalis Remaster]
--------------------------------------------------------------------------------

DR Peak RMS Duration Track
--------------------------------------------------------------------------------
DR9 -0.10 dB -10.53 dB 3:15 01-X Offender
DR9 -0.10 dB -10.99 dB 2:08 02-Little Girl Lies
DR9 -0.10 dB -10.66 dB 2:33 03-In The Flesh
DR10 -0.10 dB -12.26 dB 2:56 04-Look Good In Blue
DR8 -0.10 dB -9.49 dB 2:40 05-In The Sun
DR10 -0.10 dB -11.67 dB 3:40 06-A Shark In Jets Clothing
DR11 -0.10 dB -12.40 dB 3:22 07-Man Overboard
DR10 -0.10 dB -11.36 dB 3:23 08-Rip Her To Shreds
DR11 -0.39 dB -12.70 dB 3:42 09-Rifle Range
DR10 -0.10 dB -11.46 dB 2:33 10-Kung Fu Girls
DR9 -0.10 dB -11.66 dB 3:34 11-The Attack Of The Giant Ants
DR11 -0.44 dB -13.75 dB 2:21 12-Out In The Streets (Demo)
DR11 -0.38 dB -13.06 dB 2:17 13-The Thin Line (Demo)
DR11 -0.10 dB -12.21 dB 2:12 14-Platinum Blonde (Demo)
DR9 -0.10 dB -10.77 dB 3:14 15-X Offender (Single Version)
DR9 -0.12 dB -10.46 dB 2:39 16-In The Sun (Single Version)
--------------------------------------------------------------------------------

Number of tracks: 16
Official DR value: DR10

Samplerate: 44100 Hz
Channels: 2
Bits per sample: 16
Bitrate: 929 kbps
Codec: FLAC
================================================================================




_______________________________________________________________________________________________________________




Blondie - Plastic Letters (1977) [2001 Chrysalis Remaster]
FLAC (Image + Cue + Log) - 332 MB | Complete Scans (Jpeg 600 dpi) - 112 MB | MP3 (CBR320 Kbps) - 125 MB
Chrysalis Records | 72435-33598-2-9 | 47:54 minutes


Plastic Letters is the second studio album by American rock band Blondie.

“ In artistic terms, Plastic Letters, Blondie's second album, was a classic example of the sophomore slump. If their debut, Blondie, was a precise update of the early-'60s girl group sound, delivered with an ironic, '70s sensibility, its follow-up seemed to consist of leftovers, the songwriting never emerging from obscurity and pedestrian musical tracks. The production (again courtesy of Richard Gottehrer) was once again bright and sharp, but in the service of inferior material it alone couldn't save the collection. The two exceptions to the general mediocrity were "Denis," a revival of Randy & the Rainbows' 1963 hit "Denise," for which Deborah Harry sang a verse in French to justify the name and gender change, and "(I'm Always Touched by Your) Presence, Dear," written by Gary Valentine, who had left Blondie shortly before the recording of the album. Due to these two songs, the album became a commercial success, at least overseas. British-based Chrysalis Records had bought out Private Stock, giving Blondie greater distribution and more of an international marketing focus. The result was that "Denis" broke them in Europe, nearly topping the U.K. charts and followed into the Top Ten by "(I'm Always Touched by Your) Presence, Dear," with the album also peaking in the Top Ten. In the U.S., Blondie finally charted, making the Top 100. The songwriting problem did not seem to bode well, but they would take a distinctly different approach next time out. Reviewed by William Ruhlmann of allmusic.com ”


Exact Audio Copy V1.0 beta 2 from 29. April 2011

EAC extraction logfile from 16. September 2014, 15:50

Blondie / Plastic Letters [2001 Chrysalis Remaster]

Used drive : HL-DT-STBD-RE BH14NS40 Adapter: 0 ID: 2

Read mode : Secure
Utilize accurate stream : Yes
Defeat audio cache : Yes
Make use of C2 pointers : No

Read offset correction : 6
Overread into Lead-In and Lead-Out : No
Fill up missing offset samples with silence : Yes
Delete leading and trailing silent blocks : No
Null samples used in CRC calculations : Yes
Used interface : Native Win32 interface for Win NT & 2000

Used output format : User Defined Encoder
Selected bitrate : 1024 kBit/s
Quality : High
Add ID3 tag : No
Command line compressor : C:Program Files (x86)Exact Audio CopyFlacflac.exe
Additional command line options : -V -5 -T "artist=%albumartist%" -T "title=%title%" -T "album=%albumtitle%" -T "date=%year%" -T "genre=%genre%" -T "tracknumber=%tracknr%" %source%


TOC of the extracted CD

Track | Start | Length | Start sector | End sector
---------------------------------------------------------
1 | 0:00.00 | 2:38.60 | 0 | 11909
2 | 2:38.60 | 2:19.10 | 11910 | 22344
3 | 4:57.70 | 2:48.27 | 22345 | 34971
4 | 7:46.22 | 3:03.45 | 34972 | 48741
5 | 10:49.67 | 2:02.50 | 48742 | 57941
6 | 12:52.42 | 2:43.23 | 57942 | 70189
7 | 15:35.65 | 2:18.02 | 70190 | 80541
8 | 17:53.67 | 2:52.28 | 80542 | 93469
9 | 20:46.20 | 2:28.37 | 93470 | 104606
10 | 23:14.57 | 2:55.45 | 104607 | 117776
11 | 26:10.27 | 2:37.50 | 117777 | 129601
12 | 28:48.02 | 2:29.00 | 129602 | 140776
13 | 31:17.02 | 4:32.50 | 140777 | 161226
14 | 35:49.52 | 3:58.73 | 161227 | 179149
15 | 39:48.50 | 3:10.65 | 179150 | 193464
16 | 42:59.40 | 2:20.42 | 193465 | 204006
17 | 45:20.07 | 2:33.35 | 204007 | 215516


Range status and errors

Selected range

Filename C:EACBlondie - (1977) Plastic Letters [2001 Chrysalis Remaster]Blondie - Plastic Letters [2001 Chrysalis Remaster].wav

Peak level 99.4 %
Extraction speed 5.8 X
Range quality 100.0 %
Test CRC FB01DB17
Copy CRC FB01DB17
Copy OK

No errors occurred


AccurateRip summary

Track 1 accurately ripped (confidence 17) [0995F1BE] (AR v2)
Track 2 accurately ripped (confidence 17) [FC9BAE44] (AR v2)
Track 3 accurately ripped (confidence 17) [D92D5680] (AR v2)
Track 4 accurately ripped (confidence 17) [8AF2E45E] (AR v2)
Track 5 accurately ripped (confidence 17) [357C7219] (AR v2)
Track 6 accurately ripped (confidence 17) [F5777563] (AR v2)
Track 7 accurately ripped (confidence 17) [E91FC154] (AR v2)
Track 8 accurately ripped (confidence 17) [02CD8091] (AR v2)
Track 9 accurately ripped (confidence 17) [A2A073C7] (AR v2)
Track 10 accurately ripped (confidence 16) [CD04E0EE] (AR v2)
Track 11 accurately ripped (confidence 17) [B857088C] (AR v2)
Track 12 accurately ripped (confidence 17) [561D1B32] (AR v2)
Track 13 accurately ripped (confidence 17) [E21ED79C] (AR v2)
Track 14 accurately ripped (confidence 17) [5F8327FF] (AR v2)
Track 15 accurately ripped (confidence 17) [D1F0910F] (AR v2)
Track 16 accurately ripped (confidence 17) [65F08BC3] (AR v2)
Track 17 accurately ripped (confidence 17) [B6B75A7B] (AR v2)

All tracks accurately ripped

End of status report

==== Log checksum 94B7F1A16EF20417480EAC607BDF361EF626EA07CF1C68A379D534664C8FFE41 ====


Track Listing

01. Fan Mail
02. Denis
03. Bermuda Triangle Blues (Flight 45)
04. Youth Nabbed As Sniper
05. Contact In Red Square
06. (I'm Always Touched By Your) Presence, Dear
07. I'm On E
08. I Didn't Have The Nerve To Say No
09. Love At The Pier
10. No Imagination
11. Kidnapper
12. Detroit 442
13. Cautious Lip

Bonus Tracks:

14. Once I Had A Love (aka The Disco Song) (1975 Version) (Demo)
15. Scenery (Outtake)
16. Poets Problem (B-Side)
17. Detroit 442 (Live 11-6-1978)


Album Released: February 1978
Remastered Album Released: September 11, 2001


foobar2000 1.3.2 / Dynamic Range Meter 1.1.0
log date: 2015-01-29 03:54:43

--------------------------------------------------------------------------------
Analyzed: Blondie / Plastic Letters [2001 Chrysalis Remaster]
--------------------------------------------------------------------------------

DR Peak RMS Duration Track
--------------------------------------------------------------------------------
DR7 -0.24 dB -9.26 dB 2:39 01-Fan Mail
DR8 -0.22 dB -10.29 dB 2:19 02-Denis
DR9 -0.18 dB -11.48 dB 2:48 03-Bermuda Triangle Blues (Flight 45)
DR7 -0.17 dB -9.27 dB 3:04 04-Youth Nabbed As Sniper
DR8 -0.33 dB -10.48 dB 2:03 05-Contact In Red Square
DR8 -0.10 dB -10.10 dB 2:43 06-(I'm Always Touched By Your) Presence, Dear
DR9 -0.23 dB -10.61 dB 2:18 07-I'm On E
DR9 -0.08 dB -10.49 dB 2:52 08-I Didn't Have The Nerve To Say No
DR9 -0.17 dB -11.07 dB 2:28 09-Love At The Pier
DR9 -0.19 dB -12.00 dB 2:56 10-No Imagination
DR9 -0.34 dB -10.83 dB 2:38 11-Kidnapper
DR8 -0.15 dB -10.40 dB 2:29 12-Detroit 442
DR9 -0.05 dB -11.11 dB 4:33 13-Cautious Lip
DR10 -0.38 dB -12.13 dB 3:59 14-Once I Had A Love (aka The Disco Song) (1975 Version) (Demo)
DR11 -0.45 dB -12.61 dB 3:11 15-Scenery (Outtake)
DR9 -0.48 dB -11.85 dB 2:21 16-Poets Problem (B-Side)
DR6 -3.27 dB -11.45 dB 2:33 17-Detroit 442 (Live 11-6-1978)
--------------------------------------------------------------------------------

Number of tracks: 17
Official DR value: DR9

Samplerate: 44100 Hz
Channels: 2
Bits per sample: 16
Bitrate: 921 kbps
Codec: FLAC
================================================================================




_______________________________________________________________________________________________________________




Blondie - Parallel Lines (1978) [2001 Chrysalis Remaster]
FLAC (Image + Cue + Log) - 421 MB | Complete Scans (Jpeg 600 dpi) - 94 MB | MP3 (CBR320 Kbps) - 142 MB
Chrysalis Records | 72435-33599-2-8 | 56:56 minutes


Parallel Lines is the third studio album by the American rock band Blondie. The album reached #1 in the United Kingdom in February 1979 and proved to be the band's commercial breakthrough in the United States, where it reached #6 in April 1979.

“ Blondie turned to British pop producer Mike Chapman for their third album, on which they abandoned any pretensions to new wave legitimacy (just in time, given the decline of the new wave) and emerged as a pure pop band. But it wasn't just Chapman that made Parallel Lines Blondie's best album; it was the band's own songwriting, including Deborah Harry, Chris Stein, and James Destri's "Picture This," and Harry and Stein's "Heart of Glass," and Harry and new bass player Nigel Harrison's "One Way or Another," plus two contributions from nonbandmember Jack Lee, "Will Anything Happen?" and "Hanging on the Telephone." That was enough to give Blondie a number one on both sides of the Atlantic with "Heart of Glass" and three more U.K. hits, but what impresses is the album's depth and consistency -- album tracks like "Fade Away and Radiate" and "Just Go Away" are as impressive as the songs pulled for singles. The result is state-of-the-art pop/rock circa 1978, with Harry's tough-girl glamour setting the pattern that would be exploited over the next decade by a host of successors led by Madonna. Reviewed by William Ruhlmann of allmusic.com ”


Exact Audio Copy V1.0 beta 2 from 29. April 2011

EAC extraction logfile from 16. September 2014, 11:02

Blondie / Parallel Lines [2001 Chrysalis Remaster]

Used drive : HL-DT-STBD-RE BH14NS40 Adapter: 0 ID: 2

Read mode : Secure
Utilize accurate stream : Yes
Defeat audio cache : Yes
Make use of C2 pointers : No

Read offset correction : 6
Overread into Lead-In and Lead-Out : No
Fill up missing offset samples with silence : Yes
Delete leading and trailing silent blocks : No
Null samples used in CRC calculations : Yes
Used interface : Native Win32 interface for Win NT & 2000

Used output format : User Defined Encoder
Selected bitrate : 1024 kBit/s
Quality : High
Add ID3 tag : No
Command line compressor : C:Program Files (x86)Exact Audio CopyFlacflac.exe
Additional command line options : -V -5 -T "artist=%albumartist%" -T "title=%title%" -T "album=%albumtitle%" -T "date=%year%" -T "genre=%genre%" -T "tracknumber=%tracknr%" %source%


TOC of the extracted CD

Track | Start | Length | Start sector | End sector
---------------------------------------------------------
1 | 0:00.00 | 2:22.22 | 0 | 10671
2 | 2:22.22 | 3:35.08 | 10672 | 26804
3 | 5:57.30 | 2:56.42 | 26805 | 40046
4 | 8:53.72 | 4:02.33 | 40047 | 58229
5 | 12:56.30 | 3:18.65 | 58230 | 73144
6 | 16:15.20 | 3:56.67 | 73145 | 90911
7 | 20:12.12 | 3:20.48 | 90912 | 105959
8 | 23:32.60 | 3:00.25 | 105960 | 119484
9 | 26:33.10 | 3:05.42 | 119485 | 133401
10 | 29:38.52 | 5:50.18 | 133402 | 159669
11 | 35:28.70 | 2:06.55 | 159670 | 169174
12 | 37:35.50 | 3:33.60 | 169175 | 185209
13 | 41:09.35 | 3:18.00 | 185210 | 200059
14 | 44:27.35 | 5:30.22 | 200060 | 224831
15 | 49:57.57 | 4:35.25 | 224832 | 245481
16 | 54:33.07 | 2:21.73 | 245482 | 256129


Range status and errors

Selected range

Filename C:EACBlondie - (1978) Parallel Lines [2001 Chrysalis Remaster]Blondie - Parallel Lines [2001 Chrysalis Remaster].wav

Peak level 100.0 %
Extraction speed 6.2 X
Range quality 100.0 %
Test CRC A128CD63
Copy CRC A128CD63
Copy OK

No errors occurred


AccurateRip summary

Track 1 accurately ripped (confidence 70) [2696A975] (AR v2)
Track 2 accurately ripped (confidence 71) [EF61C035] (AR v2)
Track 3 accurately ripped (confidence 71) [349DB6BF] (AR v2)
Track 4 accurately ripped (confidence 70) [E23AD89E] (AR v2)
Track 5 accurately ripped (confidence 70) [AE5F5EB2] (AR v2)
Track 6 accurately ripped (confidence 70) [8111D940] (AR v2)
Track 7 accurately ripped (confidence 70) [0DB49660] (AR v2)
Track 8 accurately ripped (confidence 71) [461D8281] (AR v2)
Track 9 accurately ripped (confidence 70) [21C94371] (AR v2)
Track 10 accurately ripped (confidence 70) [F007157D] (AR v2)
Track 11 accurately ripped (confidence 69) [9860DD21] (AR v2)
Track 12 accurately ripped (confidence 70) [6585091A] (AR v2)
Track 13 accurately ripped (confidence 68) [0B377198] (AR v2)
Track 14 accurately ripped (confidence 68) [F277F82F] (AR v2)
Track 15 accurately ripped (confidence 68) [53466410] (AR v2)
Track 16 accurately ripped (confidence 69) [C668A5BC] (AR v2)

All tracks accurately ripped

End of status report

==== Log checksum 0EE8107A5B682DFA9C41931FDF11ACECC8E052D769E111A03F1EE8BC28EB9775 ====


Track Listing

01. Hanging On The Telephone
02. One Way Or Another
03. Picture This
04. Fade Away And Radiate
05. Pretty Baby
06. I Know But I Don't Know
07. 11:59
08. Will Anything Happen?
09. Sunday Girl
10. Heart Of Glass
11. I'm Gonna Love You Too
12. Just Go Away

Bonus Tracks:

13. Once I Had A Love (aka The Disco Song) (1978 version)
14. Bang A Gong (Get It On) (Live 11-4-78)
15. I Know But I Don't Know (Live 11-6-78)
16. Hanging On The Telephone (Live 1980)


Album Released: September 1978
Remastered Album Released: September 11, 2001


foobar2000 1.3.2 / Dynamic Range Meter 1.1.0
log date: 2015-01-29 03:58:51

--------------------------------------------------------------------------------
Analyzed: Blondie / Parallel Lines [2001 Chrysalis Remaster]
--------------------------------------------------------------------------------

DR Peak RMS Duration Track
--------------------------------------------------------------------------------
DR8 -0.60 dB -9.81 dB 2:22 01-Hanging On The Telephone
DR7 -0.60 dB -9.63 dB 3:35 02-One Way Or Another
DR7 -0.60 dB -10.16 dB 2:57 03-Picture This
DR10 -0.60 dB -14.73 dB 4:02 04-Fade Away And Radiate
DR8 -0.60 dB -10.20 dB 3:19 05-Pretty Baby
DR8 -0.60 dB -10.26 dB 3:57 06-I Know But I Don't Know
DR9 -0.60 dB -10.89 dB 3:21 07-11:59
DR7 -0.60 dB -9.51 dB 3:00 08-Will Anything Happen?
DR8 -0.60 dB -10.36 dB 3:06 09-Sunday Girl
DR9 -0.36 dB -10.59 dB 5:50 10-Heart Of Glass
DR8 -0.60 dB -9.86 dB 2:07 11-I'm Gonna Love You Too
DR8 0.00 dB -10.59 dB 3:34 12-Just Go Away
DR10 -0.60 dB -11.94 dB 3:18 13-Once I Had A Love (aka The Disco Song) (1978 version)
DR9 -0.10 dB -11.15 dB 5:30 14-Bang A Gong (Get It On) (Live 11-4-78)
DR9 0.00 dB -10.46 dB 4:35 15-I Know But I Don't Know (Live 11-6-78)
DR9 -0.10 dB -9.80 dB 2:22 16-Hanging On The Telephone (Live 1980)
--------------------------------------------------------------------------------

Number of tracks: 16
Official DR value: DR8

Samplerate: 44100 Hz
Channels: 2
Bits per sample: 16
Bitrate: 985 kbps
Codec: FLAC
================================================================================




_______________________________________________________________________________________________________________




Blondie - (1979) Eat To The Beat [2001 Chrysalis Remaster]
FLAC (Image + Cue + Log) - 416 MB | Complete Scans (Jpeg 600 dpi) - 117 MB | MP3 (CBR320 Kbps) - 151 MB
Chrysalis Records | 72435-33597-2-0 | 59:27 minutes


Eat to the Beat is the fourth studio album by the American rock band Blondie. It was certified Platinum in the United States, where it spent a year on the Billboard album chart. Although it peaked at No.17, it was one of Billboard?'?s top 10 albums of 1980. It also hit No.1 on the United Kingdom album chart in October 1979 and was certified Platinum by the BPI.

“ Just as Blondie's second album, Plastic Letters, was a pale imitation of their self-titled debut, Eat to the Beat, their fourth album, was a secondhand version of their breakthrough third album, Parallel Lines: one step forward, half a step back. There was an attempt, on such songs as "The Hardest Part" and "Atomic," to recreate the rock/disco fusion of the group's one major U.S. hit, "Heart of Glass," without similar success, and, elsewhere, the band just tried to cover too many stylistic bases. "Die Young Stay Pretty," for example, dipped into an island sound complete with modified reggae beat (a foreshadowing of the upcoming hit "The Tide Is High"), and "Sound-a-Sleep" was a lullaby that dragged too much to be a good change of pace. The British, who had long since been converted, made Eat to the Beat another chart-topper, with three major hits, including a number one ranking for "Atomic" and almost the same success for "Dreaming," but in the U.S., which still saw Blondie as a slightly comic one-hit wonder, the album was greeted for what it was -- slick corporate rock without the tangy flavor that had made Parallel Lines such ear candy. Reviewed by William Ruhlmann of allmusic.com ”


Exact Audio Copy V1.0 beta 2 from 29. April 2011

EAC extraction logfile from 16. September 2014, 10:29

Blondie / Eat To The Beat [2001 Chrysalis Remaster]

Used drive : HL-DT-STBD-RE BH14NS40 Adapter: 0 ID: 2

Read mode : Secure
Utilize accurate stream : Yes
Defeat audio cache : Yes
Make use of C2 pointers : No

Read offset correction : 6
Overread into Lead-In and Lead-Out : No
Fill up missing offset samples with silence : Yes
Delete leading and trailing silent blocks : No
Null samples used in CRC calculations : Yes
Used interface : Native Win32 interface for Win NT & 2000

Used output format : User Defined Encoder
Selected bitrate : 1024 kBit/s
Quality : High
Add ID3 tag : No
Command line compressor : C:Program Files (x86)Exact Audio CopyFlacflac.exe
Additional command line options : -V -5 -T "artist=%albumartist%" -T "title=%title%" -T "album=%albumtitle%" -T "date=%year%" -T "genre=%genre%" -T "tracknumber=%tracknr%" %source%


TOC of the extracted CD

Track | Start | Length | Start sector | End sector
---------------------------------------------------------
1 | 0:00.00 | 3:08.32 | 0 | 14131
2 | 3:08.32 | 3:42.38 | 14132 | 30819
3 | 6:50.70 | 3:21.57 | 30820 | 45951
4 | 10:12.52 | 3:58.35 | 45952 | 63836
5 | 14:11.12 | 2:40.30 | 63837 | 75866
6 | 16:51.42 | 4:15.05 | 75867 | 94996
7 | 21:06.47 | 3:34.13 | 94997 | 111059
8 | 24:40.60 | 3:28.62 | 111060 | 126721
9 | 28:09.47 | 4:40.23 | 126722 | 147744
10 | 32:49.70 | 4:18.10 | 147745 | 167104
11 | 37:08.05 | 3:19.25 | 167105 | 182054
12 | 40:27.30 | 2:53.50 | 182055 | 195079
13 | 43:21.05 | 3:27.60 | 195080 | 210664
14 | 46:48.65 | 2:48.45 | 210665 | 223309
15 | 49:37.35 | 6:19.10 | 223310 | 251744
16 | 55:56.45 | 3:30.27 | 251745 | 267521


Range status and errors

Selected range

Filename C:EACBlondie - (1979) Eat To The Beat [2001 Chrysalis Remaster]Blondie - Eat To The Beat [2001 Chrysalis Remaster].wav

Peak level 98.9 %
Extraction speed 6.3 X
Range quality 100.0 %
Test CRC 3A8B94C8
Copy CRC 3A8B94C8
Copy OK

No errors occurred


AccurateRip summary

Track 1 accurately ripped (confidence 19) [3537CC5A] (AR v2)
Track 2 accurately ripped (confidence 18) [F2F1DF0F] (AR v2)
Track 3 accurately ripped (confidence 18) [37BB86CF] (AR v2)
Track 4 accurately ripped (confidence 18) [E158BF59] (AR v2)
Track 5 accurately ripped (confidence 18) [7BD66DB6] (AR v2)
Track 6 accurately ripped (confidence 18) [207FD6E9] (AR v2)
Track 7 accurately ripped (confidence 18) [0DF74D94] (AR v2)
Track 8 accurately ripped (confidence 18) [58E99C28] (AR v2)
Track 9 accurately ripped (confidence 18) [66D53E2B] (AR v2)
Track 10 accurately ripped (confidence 18) [D0D74D47] (AR v2)
Track 11 accurately ripped (confidence 18) [6684B741] (AR v2)
Track 12 accurately ripped (confidence 18) [1580F851] (AR v2)
Track 13 accurately ripped (confidence 16) [6968ADFE] (AR v2)
Track 14 accurately ripped (confidence 16) [FB478697] (AR v2)
Track 15 accurately ripped (confidence 16) [5992DB58] (AR v2)
Track 16 accurately ripped (confidence 16) [0B3BA511] (AR v2)

All tracks accurately ripped

End of status report

==== Log checksum 1F0882C4799DDAC17A880BB81496D76A8AB18D7F3F9BEB7E2F0227B96EF44A67 ====


Track Listing

01. Dreaming
02. The Hardest Part
03. Union City Blue
04. Shayla
05. Eat To The Beat
06. Accidents Never Happen
07. Die Young Stay Pretty
08. Slow Motion
09. Atomic
10. Sound-A-Sleep
11. Victor
12. Living In The Real World

Bonus Tracks:

13. Die Young Stay Pretty (Live BBC 12-31-79)
14. Seven Rooms Of Gloom (Live BBC 12-31-79)
15. Heroes (Live 1-12-80)
16. Ring Of Fire (Live)


Album Released: October 1979
Remastered Album Released: September 11, 2001


foobar2000 1.3.2 / Dynamic Range Meter 1.1.0
log date: 2015-01-29 04:07:27

--------------------------------------------------------------------------------
Analyzed: Blondie / Eat To The Beat [2001 Chrysalis Remaster]
--------------------------------------------------------------------------------

DR Peak RMS Duration Track
--------------------------------------------------------------------------------
DR8 -0.10 dB -9.80 dB 3:08 01-Dreaming
DR9 -0.10 dB -10.51 dB 3:43 02-The Hardest Part
DR8 -0.10 dB -9.69 dB 3:22 03-Union City Blue
DR10 -0.10 dB -11.87 dB 3:58 04-Shayla
DR11 -0.10 dB -11.95 dB 2:40 05-Eat To The Beat
DR9 -0.10 dB -11.23 dB 4:15 06-Accidents Never Happen
DR10 -0.10 dB -12.07 dB 3:34 07-Die Young Stay Pretty
DR10 -0.10 dB -11.56 dB 3:29 08-Slow Motion
DR9 -0.09 dB -11.35 dB 4:40 09-Atomic
DR11 -0.10 dB -14.07 dB 4:18 10-Sound-A-Sleep
DR7 -0.10 dB -9.46 dB 3:19 11-Victor
DR9 -0.10 dB -10.99 dB 2:54 12-Living In The Real World
DR9 -0.10 dB -11.54 dB 3:28 13-Die Young Stay Pretty (Live BBC 12-31-79)
DR9 -0.09 dB -10.59 dB 2:49 14-Seven Rooms Of Gloom (Live BBC 12-31-79)
DR10 -0.82 dB -11.88 dB 6:19 15-Heroes (Live 1-12-80)
DR9 -0.09 dB -10.93 dB 3:30 16-Ring Of Fire (Live)
--------------------------------------------------------------------------------

Number of tracks: 16
Official DR value: DR9

Samplerate: 44100 Hz
Channels: 2
Bits per sample: 16
Bitrate: 932 kbps
Codec: FLAC
================================================================================




_______________________________________________________________________________________________________________




Blondie - Autoamerican (1980) [2001 Chrysalis Remaster]
FLAC (Image + Cue + Log) - 507 MB | Complete Scans (Jpeg 600 dpi) - 128 MB | MP3 (CBR320 Kbps) - 174 MB
Chrysalis Records | 72435-33595-2-2 | 69:14 minutes


Autoamerican is the fifth studio album by the American rock band Blondie.

“ The basic Blondie sextet was augmented, or replaced, by numerous session musicians (including lots of uncredited horn and string players) for the group's fifth album, Autoamerican, on which they continued to expand their stylistic range, with greater success, at least on certain tracks, than they had on Eat to the Beat. A cover of Jamaican group the Paragons' "The Tide Is High," released in advance of the album, became a gold-selling number one single, as did the rap pastiche "Rapture," but, despite their presence, the album stalled in the lower half of the Top Ten and spent fewer weeks in the charts than either of its predecessors. One reason for that, admittedly, was that Chrysalis Records pulled promotion of the disc in favor of pushing lead singer Debbie Harry's debut solo album, KooKoo, not even bothering to release a third single after scoring two chart-topping hits. But then, it's hard to imagine what that third single could have been on an album that leads off with a pretentious string-filled instrumental ("Europa"), and also finds Harry crooning ersatz '20s pop on "Here's Looking at You" and tackling Broadway show music in a cover of "Follow Me" from Camelot. Though more characteristic, the rest of the tracks are weak compositions indifferently executed. Thus Autoamerican was memorable only for its hits, which would be better heard when placed on a hits compilation. Reviewed by William Ruhlmann of allmusic.com ”


Exact Audio Copy V1.0 beta 2 from 29. April 2011

EAC extraction logfile from 16. September 2014, 0:04

Blondie / Autoamerican [2001 Chrysalis Remaster]

Used drive : HL-DT-STBD-RE BH14NS40 Adapter: 0 ID: 2

Read mode : Secure
Utilize accurate stream : Yes
Defeat audio cache : Yes
Make use of C2 pointers : No

Read offset correction : 6
Overread into Lead-In and Lead-Out : No
Fill up missing offset samples with silence : Yes
Delete leading and trailing silent blocks : No
Null samples used in CRC calculations : Yes
Used interface : Native Win32 interface for Win NT & 2000

Used output format : User Defined Encoder
Selected bitrate : 1024 kBit/s
Quality : High
Add ID3 tag : No
Command line compressor : C:Program Files (x86)Exact Audio CopyFlacflac.exe
Additional command line options : -V -5 -T "artist=%albumartist%" -T "title=%title%" -T "album=%albumtitle%" -T "date=%year%" -T "genre=%genre%" -T "tracknumber=%tracknr%" %source%


TOC of the extracted CD

Track | Start | Length | Start sector | End sector
---------------------------------------------------------
1 | 0:00.00 | 3:30.57 | 0 | 15806
2 | 3:30.57 | 4:09.50 | 15807 | 34531
3 | 7:40.32 | 2:58.30 | 34532 | 47911
4 | 10:38.62 | 4:40.20 | 47912 | 68931
5 | 15:19.07 | 3:47.50 | 68932 | 86006
6 | 19:06.57 | 2:42.08 | 86007 | 98164
7 | 21:48.65 | 3:51.60 | 98165 | 115549
8 | 25:40.50 | 6:31.32 | 115550 | 144906
9 | 32:12.07 | 3:52.28 | 144907 | 162334
10 | 36:04.35 | 3:57.10 | 162335 | 180119
11 | 40:01.45 | 3:44.72 | 180120 | 196991
12 | 43:46.42 | 3:10.60 | 196992 | 211301
13 | 46:57.27 | 8:06.70 | 211302 | 247821
14 | 55:04.22 | 4:10.05 | 247822 | 266576
15 | 59:14.27 | 9:59.33 | 266577 | 311534


Range status and errors

Selected range

Filename C:EACBlondie - (1980) Autoamerican [2001 Chrysalis Remaster]Blondie - Autoamerican [2001 Chrysalis Remaster].wav

Peak level 98.8 %
Extraction speed 4.6 X
Range quality 100.0 %
Test CRC 0656F5CF
Copy CRC 0656F5CF
Copy OK

No errors occurred


AccurateRip summary

Track 1 accurately ripped (confidence 20) [E4A735CD] (AR v2)
Track 2 accurately ripped (confidence 20) [23007892] (AR v2)
Track 3 accurately ripped (confidence 21) [5510E085] (AR v2)
Track 4 accurately ripped (confidence 21) [51EBB24B] (AR v2)
Track 5 accurately ripped (confidence 21) [9BB44C04] (AR v2)
Track 6 accurately ripped (confidence 21) [30612C09] (AR v2)
Track 7 accurately ripped (confidence 21) [95422F84] (AR v2)
Track 8 accurately ripped (confidence 21) [BE8D886A] (AR v2)
Track 9 accurately ripped (confidence 21) [01B7308E] (AR v2)
Track 10 accurately ripped (confidence 21) [29E61E5E] (AR v2)
Track 11 accurately ripped (confidence 21) [64E27D88] (AR v2)
Track 12 accurately ripped (confidence 21) [6B63DA8D] (AR v2)
Track 13 accurately ripped (confidence 21) [8C50E875] (AR v2)
Track 14 accurately ripped (confidence 21) [19D722FB] (AR v2)
Track 15 accurately ripped (confidence 18) [CBAEA0B1] (AR v2)

All tracks accurately ripped

End of status report

==== Log checksum 26A5F00904C01D9D183366EAB715170CCF6343B8E3B29A532B235642F2A68ED7 ====


Track Listing

01. Europa
02. Live It Up
03. Here's Looking At You
04. The Tide Is High
05. Angels On The Balcony
06. Go Through It
07. Do The Dark
08. Rapture
09. Faces
10. T-Birds
11. Walk Like Me
12. Follow Me

Bonus Tracks:

13. Call Me (Original Long Version)
14. Suzy & Jeffrey (B-Side)
15. Rapture (Special Disco Mix)


Album Released: November 1980
Remastered Album Released: September 11, 2001


foobar2000 1.3.2 / Dynamic Range Meter 1.1.0
log date: 2015-01-29 04:38:04

--------------------------------------------------------------------------------
Analyzed: Blondie / Autoamerican [2001 Chrysalis Remaster]
--------------------------------------------------------------------------------

DR Peak RMS Duration Track
--------------------------------------------------------------------------------
DR10 -0.60 dB -12.65 dB 3:31 01-Europa
DR8 -0.60 dB -10.91 dB 4:10 02-Live It Up
DR9 -0.39 dB -10.66 dB 2:58 03-Here's Looking At You
DR7 -0.59 dB -9.37 dB 4:40 04-The Tide Is High
DR6 -0.60 dB -8.66 dB 3:48 05-Angels On The Balcony
DR7 -0.59 dB -8.75 dB 2:42 06-Go Through It
DR8 -0.60 dB -10.71 dB 3:52 07-Do The Dark
DR8 -0.59 dB -9.76 dB 6:31 08-Rapture
DR9 -0.60 dB -13.56 dB 3:52 09-Faces
DR7 -0.60 dB -8.80 dB 3:57 10-T-Birds
DR8 -0.59 dB -9.59 dB 3:45 11-Walk Like Me
DR10 -0.60 dB -13.92 dB 3:11 12-Follow Me
DR10 -0.10 dB -11.11 dB 8:07 13-Call Me (Original Long Version)
DR8 -1.10 dB -10.50 dB 4:10 14-Suzy & Jeffrey
DR8 -0.10 dB -10.42 dB 9:59 15-Rapture (Special Disco Mix)
--------------------------------------------------------------------------------

Number of tracks: 15
Official DR value: DR8

Samplerate: 44100 Hz
Channels: 2
Bits per sample: 16
Bitrate: 976 kbps
Codec: FLAC
================================================================================




_______________________________________________________________________________________________________________




Blondie - The Hunter (1982) [2001 Chrysalis Remaster]
FLAC (Image + Cue + Log) - 384 MB | Complete Scans (Jpeg 600 dpi) - 133 MB | MP3 (CBR320 Kbps) - 134 MB
Chrysalis Records | 72435-33670-2-2 | 53:33 minutes


The Hunter is the sixth studio album by the American band Blondie It was Blondie's last album of new material until 1999's No Exit.

“ Autoamerican was Blondie's last real album (until their 1999 reunion with No Exit), after which the band collapsed in legal problems and solo aspirations. The Hunter was only made because they still owed Chrysalis an album on their contract, and it sounds like the obligatory record it was. "Island of Lost Souls" (the album's only U.S. singles chart entry and, in fact, the only song released as a single in the U.S.) was a try at remaking "The Tide Is High," while "The Beast" tried to re-create at least the rap section of "Rapture." "War Child," which made the U.K. Top 40, was a dance rock effort in the style of "Call Me," and one of two somewhat autobiographical Debbie Harry lyrics, along with "English Boys." (Harry wrote all the album's words except for those to keyboard player Jimmy Destri's "Danceway" and the cover of the Marvelettes' 1967 hit "The Hunter Gets Captured by the Game," which was written by Smokey Robinson.) "For Your Eyes Only" had been intended as the theme song for the 1981 James Bond film, but rejected (rightly) in favor of a competing entry by Bill Conti and Mike Leeson that went on to become a Top Five hit for Sheena Easton. The rest of the material was equally second-rate, consisting of funk-rock tracks with the barest of melodies, and lyrics that ranged from impenetrable ("Orchid Club") to incoherent (the science fiction epic "Dragonfly," which alternated recited and sung sections having something to do with a spaceship race). Blondie was always a band with ideas -- musical, lyrical, and visual -- but The Hunter found them running short conceptually as well practically. It was a disappointing end. Reviewed by William Ruhlmann of allmusic.com ”


Exact Audio Copy V1.0 beta 2 from 29. April 2011

EAC extraction logfile from 15. September 2014, 2:59

Blondie / The Hunter [2001 Chrysalis Remaster]

Used drive : HL-DT-STBD-RE BH14NS40 Adapter: 0 ID: 2

Read mode : Secure
Utilize accurate stream : Yes
Defeat audio cache : Yes
Make use of C2 pointers : No

Read offset correction : 6
Overread into Lead-In and Lead-Out : No
Fill up missing offset samples with silence : Yes
Delete leading and trailing silent blocks : No
Null samples used in CRC calculations : Yes
Used interface : Native Win32 interface for Win NT & 2000

Used output format : User Defined Encoder
Selected bitrate : 1024 kBit/s
Quality : High
Add ID3 tag : No
Command line compressor : C:Program Files (x86)Exact Audio CopyFlacflac.exe
Additional command line options : -V -5 -T "artist=%albumartist%" -T "title=%title%" -T "album=%albumtitle%" -T "date=%year%" -T "genre=%genre%" -T "tracknumber=%tracknr%" %source%


TOC of the extracted CD

Track | Start | Length | Start sector | End sector
---------------------------------------------------------
1 | 0:00.00 | 5:44.70 | 0 | 25869
2 | 5:44.70 | 4:42.42 | 25870 | 47061
3 | 10:27.37 | 6:01.20 | 47062 | 74156
4 | 16:28.57 | 3:07.30 | 74157 | 88211
5 | 19:36.12 | 4:54.28 | 88212 | 110289
6 | 24:30.40 | 4:00.62 | 110290 | 128351
7 | 28:31.27 | 3:01.20 | 128352 | 141946
8 | 31:32.47 | 3:18.68 | 141947 | 156864
9 | 34:51.40 | 3:07.35 | 156865 | 170924
10 | 37:59.00 | 3:49.20 | 170925 | 188119
11 | 41:48.20 | 3:45.37 | 188120 | 205031
12 | 45:33.57 | 7:58.68 | 205032 | 240949


Range status and errors

Selected range

Filename C:EACBlondie - (1982) The Hunter [2001 Chrysalis Remaster]Blondie - The Hunter [2001 Chrysalis Remaster].wav

Peak level 93.3 %
Extraction speed 4.4 X
Range quality 100.0 %
Test CRC 44539C49
Copy CRC 44539C49
Copy OK

No errors occurred


AccurateRip summary

Track 1 accurately ripped (confidence 13) [837FBF68] (AR v2)
Track 2 accurately ripped (confidence 13) [04040510] (AR v2)
Track 3 accurately ripped (confidence 13) [0D1F57CC] (AR v2)
Track 4 accurately ripped (confidence 13) [772DBE50] (AR v2)
Track 5 accurately ripped (confidence 13) [AB3B6F70] (AR v2)
Track 6 accurately ripped (confidence 13) [2D59032F] (AR v2)
Track 7 accurately ripped (confidence 13) [113ACB97] (AR v2)
Track 8 accurately ripped (confidence 13) [DEED15B8] (AR v2)
Track 9 accurately ripped (confidence 13) [823D1C1C] (AR v2)
Track 10 accurately ripped (confidence 13) [92CC45A5] (AR v2)
Track 11 accurately ripped (confidence 13) [59CD5EDC] (AR v2)
Track 12 accurately ripped (confidence 13) [0EF28151] (AR v2)

All tracks accurately ripped

End of status report

==== Log checksum C7F7681333634C5315364761DB9F39976E4B498B929EC808B6AFC945682AFF83 ====


Track Listing

01. Orchid Club
02. Island Of Lost Souls
03. Dragonfly
04. For Your Eyes Only
05. The Beast
06. War Child
07. Little Caesar
08. Danceway
09. (Can I) Find The Right Words (To Say)
10. English Boys
11. The Hunter Gets Captured By The Game

Bonus Track:

12. War Child (Extended Version)


Album Released: June 1982
Remastered Album Released: September 11, 2001


foobar2000 1.3.2 / Dynamic Range Meter 1.1.0
log date: 2015-01-29 04:49:36

--------------------------------------------------------------------------------
Analyzed: Blondie / The Hunter [2001 Chrysalis Remaster]
--------------------------------------------------------------------------------

DR Peak RMS Duration Track
--------------------------------------------------------------------------------
DR8 -0.60 dB -10.24 dB 5:45 01-Orchid Club
DR9 -0.60 dB -11.21 dB 4:43 02-Island Of Lost Souls
DR9 -0.60 dB -11.39 dB 6:01 03-Dragonfly
DR10 -0.60 dB -12.86 dB 3:07 04-For Your Eyes Only
DR9 -0.60 dB -11.37 dB 4:54 05-The Beast
DR9 -0.60 dB -11.33 dB 4:01 06-War Child
DR10 -0.60 dB -12.60 dB 3:01 07-Little Caesar
DR10 -0.60 dB -11.80 dB 3:19 08-Danceway
DR9 -0.60 dB -11.22 dB 3:07 09-(Can I) Find The Right Words (To Say)
DR10 -0.60 dB -11.82 dB 3:49 10-English Boys
DR10 -0.60 dB -12.27 dB 3:45 11-The Hunter Gets Captured By The Game
DR9 -0.60 dB -10.44 dB 7:59 12-War Child [Extended Version]
--------------------------------------------------------------------------------

Number of tracks: 12
Official DR value: DR9

Samplerate: 44100 Hz
Channels: 2
Bits per sample: 16
Bitrate: 955 kbps
Codec: FLAC
================================================================================




_______________________________________________________________________________________________________________



5% WinRar Recovery
If you experience any problems or broken links, PLEASE SEND PM to flac jacket.


Please also visit: