Tears For Fears - Songs From The Big Chair (1985) [2014, 30th Anniversary Edition, Box Set, 4CDs + 2DVDs]


Tears For Fears - Songs From The Big Chair (1985) [2014, 30th Anniversary Edition, Box Set, 4CDs + 2DVDs]
EAC Rip | 4CDs | FLAC Image + Cue + Log - 1.99 GB | MP3 CBR @320 kbps - 719 MB | Full scans - 527 MB
2xDVD9 | ISO | Video: NTSC 16:9 (720x480) VBR | Audio: English (LinearPCM, 2ch / DTS, 6ch / Dolby AC3, 6ch) | 7.81 GB + 7.66 GB
Label: Mercury Records Limited | Catalog.#: 0602537949915 | Genre: Synth-Pop

Tears for Fears' biggest-selling album, Songs from the Big Chair is now available in its most spectacular format. This six disc edition of the album includes newly remastered versions of classics songs like 'Everybody Wants To Rule the World,' 'Mother's Talk,' 'Shout' and 'Head over Heels,' plus a multitude of remixes and B-sides, plus a disc of nine previously unreleased tracks and a 5.1 surround sound version of the album mixed by renowned musician and audio engineer Steven Wilson. Tears for Fears' phenomenal 10-million-selling second album marked a transition in the band's sound and catapulted them into international prominence and this set is a must for fans of the band and music in general.

~ Amazon

CD1 - Songs From The Big Chair (Original Album)

01. Shout - 06:34
02. Working Hour - 06:32
03. Everybody Wants To Rule The World - 04:12
04. Mothers Talk - 05:07
05. I Believe - 04:55
06. Broken - 02:39
07. Head Over Heels - 05:02
08. Listen - 06:54

B-Sides
09. The Big Chair - 03:22
10. Empire Building - 02:53
11. The Marauders - 04:16
12. Broken Revisited - 05:16
13. The Conflict - 04:05
14. The Working Hour (Piano Version) - 02:08
15. Pharaohs - 03:42
16. When In Love With A Blind Man - 02:23
17. Sea Song - 03:55


Exact Audio Copy V1.0 beta 4 from 7. December 2014

EAC extraction logfile from 24. January 2015, 11:41

Tears For Fears / Songs From The Big Chair CD1

Used drive : PLEXTOR BD-R PX-B950SA Adapter: 1 ID: 1

Read mode : Secure
Utilize accurate stream : Yes
Defeat audio cache : Yes
Make use of C2 pointers : No

Read offset correction : 6
Overread into Lead-In and Lead-Out : No
Fill up missing offset samples with silence : Yes
Delete leading and trailing silent blocks : No
Null samples used in CRC calculations : Yes
Used interface : Native Win32 interface for Win NT & 2000

Used output format : Internal WAV Routines
Sample format : 44.100 Hz; 16 Bit; Stereo


TOC of the extracted CD

Track | Start | Length | Start sector | End sector
---------------------------------------------------------
1 | 0:00.00 | 6:33.50 | 0 | 29524
2 | 6:33.50 | 6:31.49 | 29525 | 58898
3 | 13:05.24 | 4:11.36 | 58899 | 77759
4 | 17:16.60 | 5:06.24 | 77760 | 100733
5 | 22:23.09 | 4:55.07 | 100734 | 122865
6 | 27:18.16 | 2:38.43 | 122866 | 134758
7 | 29:56.59 | 5:02.09 | 134759 | 157417
8 | 34:58.68 | 6:53.65 | 157418 | 188457
9 | 41:52.58 | 3:21.60 | 188458 | 203592
10 | 45:14.43 | 2:52.33 | 203593 | 216525
11 | 48:07.01 | 4:15.70 | 216526 | 235720
12 | 52:22.71 | 5:16.01 | 235721 | 259421
13 | 57:38.72 | 4:04.34 | 259422 | 277755
14 | 61:43.31 | 2:08.10 | 277756 | 287365
15 | 63:51.41 | 3:41.63 | 287366 | 304003
16 | 67:33.29 | 2:23.15 | 304004 | 314743
17 | 69:56.44 | 3:55.02 | 314744 | 332370


Range status and errors

Selected range

Filename C:UsersMeijinDesktopALLexxessTears For Fears1985 Songs From The Big Chair (4CD + 2DVD Box Set Mercury Records 2014)CD1Tears For Fears - Songs From The Big Chair CD1.wav

Peak level 97.9 %
Extraction speed 8.1 X
Range quality 100.0 %
Test CRC E626948F
Copy CRC E626948F
Copy OK

No errors occurred


AccurateRip summary

Track 1 accurately ripped (confidence 15) [53FF3CB7] (AR v2)
Track 2 accurately ripped (confidence 15) [940F16E7] (AR v2)
Track 3 accurately ripped (confidence 15) [DA952BDF] (AR v2)
Track 4 accurately ripped (confidence 15) [D13D7EA3] (AR v2)
Track 5 accurately ripped (confidence 15) [30CA4C2A] (AR v2)
Track 6 accurately ripped (confidence 15) [815DFC2E] (AR v2)
Track 7 accurately ripped (confidence 15) [9F4F9C08] (AR v2)
Track 8 accurately ripped (confidence 15) [B3336135] (AR v2)
Track 9 accurately ripped (confidence 17) [C277F64A] (AR v2)
Track 10 accurately ripped (confidence 17) [6ADD98A3] (AR v2)
Track 11 accurately ripped (confidence 17) [3D420198] (AR v2)
Track 12 accurately ripped (confidence 17) [C986CF3F] (AR v2)
Track 13 accurately ripped (confidence 17) [D2BB824F] (AR v2)
Track 14 accurately ripped (confidence 17) [3808F56E] (AR v2)
Track 15 accurately ripped (confidence 17) [5CFB3181] (AR v2)
Track 16 accurately ripped (confidence 17) [D72ED9CD] (AR v2)
Track 17 accurately ripped (confidence 17) [7D5AF1D2] (AR v2)

All tracks accurately ripped

End of status report

---- CUETools DB Plugin V2.1.4

[CTDB TOCID: DWyAYkL3xamhAqamuVrrQ5mm9AE-] found
Submit result: DWyAYkL3xamhAqamuVrrQ5mm9AE- has been confirmed
Track | CTDB Status
1 | (20/20) Accurately ripped
2 | (20/20) Accurately ripped
3 | (20/20) Accurately ripped
4 | (20/20) Accurately ripped
5 | (20/20) Accurately ripped
6 | (20/20) Accurately ripped
7 | (20/20) Accurately ripped
8 | (20/20) Accurately ripped
9 | (20/20) Accurately ripped
10 | (20/20) Accurately ripped
11 | (20/20) Accurately ripped
12 | (20/20) Accurately ripped
13 | (20/20) Accurately ripped
14 | (20/20) Accurately ripped
15 | (20/20) Accurately ripped
16 | (20/20) Accurately ripped
17 | (20/20) Accurately ripped


==== Log checksum EF9347DD6E1E5CBD1C2C995AD26CC50CB18B0EE6E4D4102EAC1154B2EB0C8202 ====


[CUETools log; Date: 1/31/2015 5:36:49 AM; Version: 2.1.4]
[CTDB TOCID: DWyAYkL3xamhAqamuVrrQ5mm9AE-] found.
Track | CTDB Status
1 | (22/22) Accurately ripped
2 | (22/22) Accurately ripped
3 | (22/22) Accurately ripped
4 | (22/22) Accurately ripped
5 | (22/22) Accurately ripped
6 | (22/22) Accurately ripped
7 | (22/22) Accurately ripped
8 | (22/22) Accurately ripped
9 | (22/22) Accurately ripped
10 | (22/22) Accurately ripped
11 | (22/22) Accurately ripped
12 | (22/22) Accurately ripped
13 | (22/22) Accurately ripped
14 | (22/22) Accurately ripped
15 | (22/22) Accurately ripped
16 | (22/22) Accurately ripped
17 | (22/22) Accurately ripped
[AccurateRip ID: 00326222-026d0f37-fd114f11] found.
Track [ CRC | V2 ] Status
01 [cddd3876|53ff3cb7] (00+15/15) Accurately ripped
02 [6996dce7|940f16e7] (00+15/15) Accurately ripped
03 [2efbf0a5|da952bdf] (00+15/15) Accurately ripped
04 [23fe3384|d13d7ea3] (00+15/15) Accurately ripped
05 [af4dde06|30ca4c2a] (00+15/15) Accurately ripped
06 [0097f240|815dfc2e] (00+15/15) Accurately ripped
07 [2fc676ec|9f4f9c08] (00+15/15) Accurately ripped
08 [667bf41b|b3336135] (00+15/15) Accurately ripped
09 [2ab79f32|c277f64a] (00+17/17) Accurately ripped
10 [9f743b1a|6add98a3] (00+17/17) Accurately ripped
11 [e8b60224|3d420198] (00+17/17) Accurately ripped
12 [ef08fdc4|c986cf3f] (00+17/17) Accurately ripped
13 [ea9e9065|d2bb824f] (00+17/17) Accurately ripped
14 [17a0274f|3808f56e] (00+17/17) Accurately ripped
15 [90f32839|5cfb3181] (00+17/17) Accurately ripped
16 [412cece1|d72ed9cd] (00+17/17) Accurately ripped
17 [e6b6230e|7d5af1d2] (00+17/17) Accurately ripped

Track Peak [ CRC32 ] [W/O NULL] [ LOG ]
-- 97.9 [E626948F] [664FD7BD] CRC32
01 88.6 [8E6B4DA9] [0EAEEE2A]
02 93.9 [8967F79C] [13238D76]
03 93.2 [56DF49CF] [9070A061]
04 89.8 [D5779F4A] [27F4EC15]
05 78.1 [11E592F2] [D9E75AAD]
06 90.4 [51032DC9] [FDE48BF9]
07 92.6 [4CB185E2] [508FCBEC]
08 90.8 [0DC9C236] [229F04A5]
09 91.7 [0E1A5CF3] [E06CB22F]
10 85.4 [F8582AD8] [C6579701]
11 92.7 [1F836117] [106E435D]
12 97.9 [135DBBCB] [228F5567]
13 95.1 [98425376] [DC0852DD]
14 88.0 [EC1038DC] [013B7CD4]
15 97.7 [FF7C1E43] [09C42ED4]
16 81.3 [1EDA0EE2] [BA07EC78]
17 63.3 [9E2767DC] [F8B46B28]


CD2 - Edited Songs From The Big Chair

01. The Way You Are (Single Version) - 04:57
02. Mothers Talk (Single Version) - 03:55
03. Shout (Single Version) - 06:01
04. Everybody Wants To Rule The World (Single Version) - 04:13
05. Head Over Heels (Remix) - 04:18
06. I Believe (A Soulful Re-Recording) - 04:42
07. Everybody Wants To Run The World - 04:35
08. The Way You Are (Short Version) - 04:22
09. Mothers Talk (U.S. Remix) - 04:15
10. Shout (U.S. Single Version) - 04:07
11. Everybody Wants To Run The World (Running Version) - 04:33
12. Head Over Heels (Radio Version) - 04:17
13. Mothers Talk (Video Version) - 04:47
14. Shout (Short Version) - 04:48
15. Listen (Clean Intro) - 06:53
16. Interview With Curt & Roland - 07:39


Exact Audio Copy V1.0 beta 4 from 7. December 2014

EAC extraction logfile from 28. January 2015, 17:28

Tears For Fears / Songs From The Big Chair CD2

Used drive : PLEXTOR BD-R PX-B950SA Adapter: 1 ID: 1

Read mode : Secure
Utilize accurate stream : Yes
Defeat audio cache : Yes
Make use of C2 pointers : No

Read offset correction : 6
Overread into Lead-In and Lead-Out : No
Fill up missing offset samples with silence : Yes
Delete leading and trailing silent blocks : No
Null samples used in CRC calculations : Yes
Used interface : Native Win32 interface for Win NT & 2000

Used output format : Internal WAV Routines
Sample format : 44.100 Hz; 16 Bit; Stereo


TOC of the extracted CD

Track | Start | Length | Start sector | End sector
---------------------------------------------------------
1 | 0:00.00 | 4:56.66 | 0 | 22265
2 | 4:56.66 | 3:54.71 | 22266 | 39886
3 | 8:51.62 | 6:00.67 | 39887 | 66953
4 | 14:52.54 | 4:12.47 | 66954 | 85900
5 | 19:05.26 | 4:17.23 | 85901 | 105198
6 | 23:22.49 | 4:42.15 | 105199 | 126363
7 | 28:04.64 | 4:34.49 | 126364 | 146962
8 | 32:39.38 | 4:21.48 | 146963 | 166585
9 | 37:01.11 | 4:14.55 | 166586 | 185690
10 | 41:15.66 | 4:06.62 | 185691 | 204202
11 | 45:22.53 | 4:33.03 | 204203 | 224680
12 | 49:55.56 | 4:16.47 | 224681 | 243927
13 | 54:12.28 | 4:47.10 | 243928 | 265462
14 | 58:59.38 | 4:47.41 | 265463 | 287028
15 | 63:47.04 | 6:52.16 | 287029 | 317944
16 | 70:39.20 | 7:38.30 | 317945 | 352324


Range status and errors

Selected range

Filename C:UsersMeijinDesktopALLexxessTears For Fears1985 Songs From The Big Chair (4CD + 2DVD Box Set Mercury Records 2014)CD2Tears For Fears - Songs From The Big Chair CD2.wav

Peak level 100.0 %
Extraction speed 8.5 X
Range quality 100.0 %
Test CRC 2960D62F
Copy CRC 2960D62F
Copy OK

No errors occurred


AccurateRip summary

Track 1 accurately ripped (confidence 13) [3388C0DD] (AR v2)
Track 2 accurately ripped (confidence 13) [92781209] (AR v2)
Track 3 accurately ripped (confidence 13) [26253DA9] (AR v2)
Track 4 accurately ripped (confidence 13) [55B23362] (AR v2)
Track 5 accurately ripped (confidence 13) [78124F77] (AR v2)
Track 6 accurately ripped (confidence 13) [1C021C2F] (AR v2)
Track 7 accurately ripped (confidence 13) [99205A98] (AR v2)
Track 8 accurately ripped (confidence 13) [1FC139D9] (AR v2)
Track 9 accurately ripped (confidence 13) [24B019F6] (AR v2)
Track 10 accurately ripped (confidence 13) [26970209] (AR v2)
Track 11 accurately ripped (confidence 13) [CDCFF855] (AR v2)
Track 12 accurately ripped (confidence 13) [C0A43D12] (AR v2)
Track 13 accurately ripped (confidence 13) [E90FD61C] (AR v2)
Track 14 accurately ripped (confidence 13) [800DD928] (AR v2)
Track 15 accurately ripped (confidence 12) [38C16177] (AR v2)
Track 16 accurately ripped (confidence 12) [0DC9C12F] (AR v2)

All tracks accurately ripped

End of status report

---- CUETools DB Plugin V2.1.4

[CTDB TOCID: DGpFqpd.iaNHDvoLBRfzL8X34gk-] found
Submit result: DGpFqpd.iaNHDvoLBRfzL8X34gk- has been confirmed
Track | CTDB Status
1 | (18/18) Accurately ripped
2 | (18/18) Accurately ripped
3 | (18/18) Accurately ripped
4 | (18/18) Accurately ripped
5 | (18/18) Accurately ripped
6 | (18/18) Accurately ripped
7 | (18/18) Accurately ripped
8 | (18/18) Accurately ripped
9 | (18/18) Accurately ripped
10 | (18/18) Accurately ripped
11 | (18/18) Accurately ripped
12 | (18/18) Accurately ripped
13 | (18/18) Accurately ripped
14 | (18/18) Accurately ripped
15 | (18/18) Accurately ripped
16 | (18/18) Accurately ripped


==== Log checksum 281AFD669620EFA91280286D94B02D0828D3FCE783E5A04089D46B4E240ED2BB ====


[CUETools log; Date: 1/31/2015 5:37:00 AM; Version: 2.1.4]
[CTDB TOCID: DGpFqpd.iaNHDvoLBRfzL8X34gk-] found.
Track | CTDB Status
1 | (19/19) Accurately ripped
2 | (19/19) Accurately ripped
3 | (19/19) Accurately ripped
4 | (19/19) Accurately ripped
5 | (19/19) Accurately ripped
6 | (19/19) Accurately ripped
7 | (19/19) Accurately ripped
8 | (19/19) Accurately ripped
9 | (19/19) Accurately ripped
10 | (19/19) Accurately ripped
11 | (19/19) Accurately ripped
12 | (19/19) Accurately ripped
13 | (19/19) Accurately ripped
14 | (19/19) Accurately ripped
15 | (19/19) Accurately ripped
16 | (19/19) Accurately ripped
[AccurateRip ID: 002b5b29-0208a5d8-f4125910] found.
Track [ CRC | V2 ] Status
01 [50c7aa45|3388c0dd] (00+13/13) Accurately ripped
02 [37ad3977|92781209] (00+13/13) Accurately ripped
03 [ec27e2c4|26253da9] (00+13/13) Accurately ripped
04 [e180e1bb|55b23362] (00+13/13) Accurately ripped
05 [39b5464f|78124f77] (00+13/13) Accurately ripped
06 [4eb6f542|1c021c2f] (00+13/13) Accurately ripped
07 [4697f968|99205a98] (00+13/13) Accurately ripped
08 [dfdb6dc0|1fc139d9] (00+13/13) Accurately ripped
09 [f7d0ed56|24b019f6] (00+13/13) Accurately ripped
10 [d36d2f2b|26970209] (00+13/13) Accurately ripped
11 [eaf724ca|cdcff855] (00+13/13) Accurately ripped
12 [3291b022|c0a43d12] (00+13/13) Accurately ripped
13 [35f32bf8|e90fd61c] (00+13/13) Accurately ripped
14 [e579e37b|800dd928] (00+13/13) Accurately ripped
15 [42ec8af6|38c16177] (00+12/12) Accurately ripped
16 [fdbd1506|0dc9c12f] (00+12/12) Accurately ripped

Track Peak [ CRC32 ] [W/O NULL] [ LOG ]
-- 100.0 [2960D62F] [469A5F48] CRC32
01 97.2 [266D7DE5] [045819FB]
02 99.1 [5A19BE4E] [B97AB1EC]
03 96.8 [F99210E3] [9F126702]
04 97.5 [4052A4E3] [6899CA18]
05 97.8 [CF90062A] [F6D6A3DB]
06 96.7 [6D20B623] [1249DAD1]
07 96.0 [71703451] [D915F4CF]
08 96.9 [361AF494] [49CA0B3F]
09 98.4 [3B952278] [8A7CCAE8]
10 95.6 [9BFFDED2] [4BE583D5]
11 97.0 [B8AC81E3] [9C3D49D8]
12 95.2 [45F30661] [88795F2C]
13 100.0 [B20E4E12] [DCEFD5CE]
14 96.2 [9DA27F95] [DC5D491F]
15 88.1 [4A5E8EA4] [8624D3C5]
16 95.9 [154BA171] [30FAAD19]


CD3 - Remixed Songs From The Big Chair

01. The Way You Are (Extended Version) - 07:43
02. Mothers Talk (Extended Version) - 06:18
03. Shout (Extended Remix Version) - 07:43
04. Everybody Wants To Rule The World (Extended Version) - 05:41
05. Head Over Heels (Preacher Mix) - 08:02
06. Mothers Talk (Beat Of The Drum Mix) - 08:57
07. Shout (U.S. Remix) - 08:01
08. Everybody Wants To Rule The World (Urban Mix) - 06:02
09. Mothers Talk (U.S. Remix - Alternate) - 04:13
10. Shout (Dub) - 06:49
11. Everybody Wants To Rule The World (Instrumental) - 04:23
12. Shout (Acapella) - 05:05


Exact Audio Copy V1.0 beta 4 from 7. December 2014

EAC extraction logfile from 27. January 2015, 18:51

Tears For Fears / Songs From The Big Chair CD3

Used drive : PLEXTOR BD-R PX-B950SA Adapter: 1 ID: 1

Read mode : Secure
Utilize accurate stream : Yes
Defeat audio cache : Yes
Make use of C2 pointers : No

Read offset correction : 6
Overread into Lead-In and Lead-Out : No
Fill up missing offset samples with silence : Yes
Delete leading and trailing silent blocks : No
Null samples used in CRC calculations : Yes
Used interface : Native Win32 interface for Win NT & 2000

Used output format : Internal WAV Routines
Sample format : 44.100 Hz; 16 Bit; Stereo


TOC of the extracted CD

Track | Start | Length | Start sector | End sector
---------------------------------------------------------
1 | 0:00.00 | 7:42.72 | 0 | 34721
2 | 7:42.72 | 6:17.32 | 34722 | 63028
3 | 14:00.29 | 7:42.12 | 63029 | 97690
4 | 21:42.41 | 5:40.43 | 97691 | 123233
5 | 27:23.09 | 8:01.70 | 123234 | 159378
6 | 35:25.04 | 8:56.67 | 159379 | 199645
7 | 44:21.71 | 8:00.54 | 199646 | 235699
8 | 52:22.50 | 6:01.57 | 235700 | 262831
9 | 58:24.32 | 4:12.71 | 262832 | 281802
10 | 62:37.28 | 6:48.36 | 281803 | 312438
11 | 69:25.64 | 4:23.14 | 312439 | 332177
12 | 73:49.03 | 5:04.73 | 332178 | 355050


Range status and errors

Selected range

Filename C:UsersMeijinDesktopALLexxessTears For Fears1985 Songs From The Big Chair (4CD + 2DVD Box Set Mercury Records 2014)CD3Tears For Fears - Songs From The Big Chair CD3.wav

Peak level 97.8 %
Extraction speed 8.5 X
Range quality 99.9 %
Test CRC 3DF33B70
Copy CRC 3DF33B70
Copy OK

No errors occurred


AccurateRip summary

Track 1 accurately ripped (confidence 14) [2C2DE464] (AR v2)
Track 2 accurately ripped (confidence 14) [65DEE224] (AR v2)
Track 3 accurately ripped (confidence 14) [338D3B35] (AR v2)
Track 4 accurately ripped (confidence 14) [A47F3700] (AR v2)
Track 5 accurately ripped (confidence 14) [C245A240] (AR v2)
Track 6 accurately ripped (confidence 14) [4AF49043] (AR v2)
Track 7 accurately ripped (confidence 14) [0E47020C] (AR v2)
Track 8 accurately ripped (confidence 14) [DAF9FB70] (AR v2)
Track 9 accurately ripped (confidence 14) [8BDF4488] (AR v2)
Track 10 accurately ripped (confidence 14) [CD0A09CB] (AR v2)
Track 11 accurately ripped (confidence 14) [E4AF3F33] (AR v2)
Track 12 accurately ripped (confidence 13) [D4E207A3] (AR v2)

All tracks accurately ripped

End of status report

---- CUETools DB Plugin V2.1.4

[CTDB TOCID: rp.5i9JVuKRpXdPLORlxvHJhMnA-] found
Submit result: rp.5i9JVuKRpXdPLORlxvHJhMnA- has been confirmed
Track | CTDB Status
1 | (16/16) Accurately ripped
2 | (16/16) Accurately ripped
3 | (16/16) Accurately ripped
4 | (16/16) Accurately ripped
5 | (16/16) Accurately ripped
6 | (16/16) Accurately ripped
7 | (16/16) Accurately ripped
8 | (16/16) Accurately ripped
9 | (16/16) Accurately ripped
10 | (16/16) Accurately ripped
11 | (16/16) Accurately ripped
12 | (16/16) Accurately ripped


==== Log checksum C23AA9FFB64ACFF56EC82C62D6662F94023215FC691FEAE2DFF9E5976CD7E0E6 ====


[CUETools log; Date: 1/31/2015 5:37:11 AM; Version: 2.1.4]
[CTDB TOCID: rp.5i9JVuKRpXdPLORlxvHJhMnA-] found.
Track | CTDB Status
1 | (17/17) Accurately ripped
2 | (17/17) Accurately ripped
3 | (17/17) Accurately ripped
4 | (17/17) Accurately ripped
5 | (17/17) Accurately ripped
6 | (17/17) Accurately ripped
7 | (17/17) Accurately ripped
8 | (17/17) Accurately ripped
9 | (17/17) Accurately ripped
10 | (17/17) Accurately ripped
11 | (17/17) Accurately ripped
12 | (17/17) Accurately ripped
[AccurateRip ID: 00258068-015ac960-a3127e0c] found.
Track [ CRC | V2 ] Status
01 [5f43e135|2c2de464] (00+14/14) Accurately ripped
02 [9cdad6d7|65dee224] (00+14/14) Accurately ripped
03 [2ae908f7|338d3b35] (00+14/14) Accurately ripped
04 [ef9e5313|a47f3700] (00+14/14) Accurately ripped
05 [cbe954a7|c245a240] (00+14/14) Accurately ripped
06 [edbc894c|4af49043] (00+14/14) Accurately ripped
07 [7c0ee39e|0e47020c] (00+14/14) Accurately ripped
08 [8994e957|daf9fb70] (00+14/14) Accurately ripped
09 [dbcad148|8bdf4488] (00+14/14) Accurately ripped
10 [fccc39c8|cd0a09cb] (00+14/14) Accurately ripped
11 [c2a7746e|e4af3f33] (00+14/14) Accurately ripped
12 [0b98ead1|d4e207a3] (00+13/13) Accurately ripped

Track Peak [ CRC32 ] [W/O NULL] [ LOG ]
-- 97.8 [3DF33B70] [963226A8] CRC32
01 97.7 [7947A48F] [F5069D1F]
02 96.4 [A5CD1393] [A7F8DB49]
03 97.8 [1CC62888] [7C155FA9]
04 97.7 [FD9282FC] [0AD62364]
05 97.8 [8393AC10] [D54BBC21]
06 96.3 [2EE4AAB6] [3F293306]
07 97.4 [AF728F19] [6A2FF314]
08 97.1 [D0207940] [5528C7E9]
09 97.6 [CA18199E] [62648534]
10 93.8 [76A063C1] [568C3C1B]
11 94.8 [73D579A0] [7349664F]
12 92.3 [7AC082B8] [A5D4F7A0]


CD4 - Unreleased Songs From The Big Chair

01. Head Over Heels (Richard Skinner Session) - 04:16
02. The Working Hour (Richard Skinner Session) - 06:08
03. Broken (Richard Skinner Session) - 03:19
04. Mothers Talk (Live At Massey Hall) - 04:05
05. Broken _ Head Over Heels (Live At Massey Hall) - 07:32
06. Memories Fade (Live At Massey Hall) - 05:11
07. The Working Hour (Live At Massey Hall) - 06:52
08. Everybody Wants To Rule The World (Live At Massey Hall) - 04:19
09. Shout (Live At Massey Hall) - 07:49
10. Mothers Talk (Early Mix Instrumental) - 04:40
11. The Way You Are (Early Mix) - 04:25
12. Broken (Early Mix) - 05:40
13. Shout (Early Mix) - 05:09
14. Everybody Wants To Rule The World (Alternate Single Version) - 04:23


Exact Audio Copy V1.0 beta 4 from 7. December 2014

EAC extraction logfile from 26. January 2015, 16:19

Tears For Fears / Songs From The Big Chair CD4

Used drive : PLEXTOR BD-R PX-B950SA Adapter: 1 ID: 1

Read mode : Secure
Utilize accurate stream : Yes
Defeat audio cache : Yes
Make use of C2 pointers : No

Read offset correction : 6
Overread into Lead-In and Lead-Out : No
Fill up missing offset samples with silence : Yes
Delete leading and trailing silent blocks : No
Null samples used in CRC calculations : Yes
Used interface : Native Win32 interface for Win NT & 2000

Used output format : Internal WAV Routines
Sample format : 44.100 Hz; 16 Bit; Stereo


TOC of the extracted CD

Track | Start | Length | Start sector | End sector
---------------------------------------------------------
1 | 0:00.00 | 4:15.65 | 0 | 19189
2 | 4:15.65 | 6:08.05 | 19190 | 46794
3 | 10:23.70 | 3:19.01 | 46795 | 61720
4 | 13:42.71 | 4:04.49 | 61721 | 80069
5 | 17:47.45 | 7:31.70 | 80070 | 113964
6 | 25:19.40 | 5:10.65 | 113965 | 137279
7 | 30:30.30 | 6:51.39 | 137280 | 168143
8 | 37:21.69 | 4:19.03 | 168144 | 187571
9 | 41:40.72 | 7:48.70 | 187572 | 222741
10 | 49:29.67 | 4:39.61 | 222742 | 243727
11 | 54:09.53 | 4:25.15 | 243728 | 263617
12 | 58:34.68 | 5:39.23 | 263618 | 289065
13 | 64:14.16 | 5:08.63 | 289066 | 312228
14 | 69:23.04 | 4:23.01 | 312229 | 331954


Range status and errors

Selected range

Filename C:UsersMeijinDesktopALLexxessTears For Fears1985 Songs From The Big Chair (4CD + 2DVD Box Set Mercury Records 2014)CD4Tears For Fears - Songs From The Big Chair CD4.wav

Peak level 100.0 %
Extraction speed 8.0 X
Range quality 100.0 %
Test CRC 7A83F0E6
Copy CRC 7A83F0E6
Copy OK

No errors occurred


AccurateRip summary

Track 1 accurately ripped (confidence 12) [1014D82D] (AR v2)
Track 2 accurately ripped (confidence 13) [94892FDB] (AR v2)
Track 3 accurately ripped (confidence 13) [85BB580C] (AR v2)
Track 4 accurately ripped (confidence 13) [91B686C8] (AR v2)
Track 5 accurately ripped (confidence 13) [FAA09CBF] (AR v2)
Track 6 accurately ripped (confidence 13) [8B1B395A] (AR v2)
Track 7 accurately ripped (confidence 13) [188097AD] (AR v2)
Track 8 accurately ripped (confidence 13) [831FFE59] (AR v2)
Track 9 accurately ripped (confidence 13) [5C6A9B8C] (AR v2)
Track 10 accurately ripped (confidence 13) [355457F3] (AR v2)
Track 11 accurately ripped (confidence 13) [C335E166] (AR v2)
Track 12 accurately ripped (confidence 11) [BF48B971] (AR v2)
Track 13 accurately ripped (confidence 12) [6AAB7419] (AR v2)
Track 14 accurately ripped (confidence 12) [FE053B83] (AR v2)

All tracks accurately ripped

End of status report

---- CUETools DB Plugin V2.1.4

[CTDB TOCID: ca7UgSgJA2cBU_qNPrx.jYW6NJg-] found
Submit result: ca7UgSgJA2cBU_qNPrx.jYW6NJg- has been confirmed
Track | CTDB Status
1 | (18/18) Accurately ripped
2 | (18/18) Accurately ripped
3 | (18/18) Accurately ripped
4 | (18/18) Accurately ripped
5 | (18/18) Accurately ripped
6 | (18/18) Accurately ripped
7 | (18/18) Accurately ripped
8 | (18/18) Accurately ripped
9 | (18/18) Accurately ripped
10 | (18/18) Accurately ripped
11 | (18/18) Accurately ripped
12 | (18/18) Accurately ripped
13 | (18/18) Accurately ripped
14 | (18/18) Accurately ripped


==== Log checksum 5A9AF2556E2E9B3A81E474B86071340FC3CF67C710D0B324C10B7B7E504DDFEF ====


[CUETools log; Date: 1/31/2015 5:37:20 AM; Version: 2.1.4]
[CTDB TOCID: ca7UgSgJA2cBU_qNPrx.jYW6NJg-] found.
Track | CTDB Status
1 | (19/19) Accurately ripped
2 | (19/19) Accurately ripped
3 | (19/19) Accurately ripped
4 | (19/19) Accurately ripped
5 | (19/19) Accurately ripped
6 | (19/19) Accurately ripped
7 | (19/19) Accurately ripped
8 | (19/19) Accurately ripped
9 | (19/19) Accurately ripped
10 | (19/19) Accurately ripped
11 | (19/19) Accurately ripped
12 | (19/19) Accurately ripped
13 | (19/19) Accurately ripped
14 | (19/19) Accurately ripped
[AccurateRip ID: 0025cffb-01972b7b-b9114a0e] found.
Track [ CRC | V2 ] Status
01 [8f57cb1d|1014d82d] (00+12/12) Accurately ripped
02 [f64ca7d8|94892fdb] (00+13/13) Accurately ripped
03 [63d1c338|85bb580c] (00+13/13) Accurately ripped
04 [a44ad61a|91b686c8] (00+13/13) Accurately ripped
05 [05296aa4|faa09cbf] (00+13/13) Accurately ripped
06 [2644c0fb|8b1b395a] (00+13/13) Accurately ripped
07 [66b4ef58|188097ad] (00+13/13) Accurately ripped
08 [13f0e1c3|831ffe59] (00+13/13) Accurately ripped
09 [1bd9e060|5c6a9b8c] (00+13/13) Accurately ripped
10 [d0a184f8|355457f3] (00+13/13) Accurately ripped
11 [028dd340|c335e166] (00+13/13) Accurately ripped
12 [2f91a3a4|bf48b971] (00+11/11) Accurately ripped
13 [d80ad8ac|6aab7419] (00+12/12) Accurately ripped
14 [43387b74|fe053b83] (00+12/12) Accurately ripped

Track Peak [ CRC32 ] [W/O NULL] [ LOG ]
-- 100.0 [7A83F0E6] [7EBDCFB8] CRC32
01 92.8 [D9B2F2D5] [F6652890]
02 93.7 [FC3FF299] [C99DED71]
03 91.6 [C1B2DAE9] [2F689D9A]
04 98.9 [7E9AF08D] [69498584]
05 97.9 [D40A1A6A] [0DF94C9E]
06 98.3 [3D0BDC13] [FD3F6C9E]
07 97.8 [CEA0BEB7] [7CB4705D]
08 98.1 [FECF765D] [57B50470]
09 97.9 [8A301080] [63D89587]
10 100.0 [BA38621D] [F7B4723B]
11 98.4 [9BD4F720] [B72830D7]
12 99.5 [FF88A75E] [2E757A49]
13 98.3 [7B704309] [AB356904]
14 97.7 [6ABA7FE5] [F0708B9F]


DVD1 - 5.1 Songs From The Big Chair (5.1 Mix And 2014 Stereo Mix)

01. Shout - 06:34
02. Working Hour - 06:32
03. Everybody Wants To Rule The World - 04:12
04. Mothers Talk - 05:07
05. I Believe - 04:55
06. Broken - 02:39
07. Head Over Heels - 05:02
08. Listen - 06:54


Title:
Size: 3.39 Gb ( 3 552 588,00 KBytes ) - DVD-5
Enabled regions: 1, 2, 3, 4, 5, 6, 7, 8

VTS_01 :
Play Length: 00:41:52
Video: NTSC 16:9 (720x480) VBR, Auto Letterboxed
Audio:
English (LinearPCM, 2 ch)

VTS_02 :
Play Length: 00:41:55
Video: NTSC 16:9 (720x480) VBR, Auto Letterboxed
Audio:
English (LinearPCM, 2 ch)
English (DTS, 6 ch)

VTS_03 :
Play Length: 00:41:55
Video: NTSC 16:9 (720x480) VBR, Auto Letterboxed
Audio:
English (Dolby AC3, 6 ch)

* Menus Information *

VIDEO_TS Menu
Video:
NTSC 16:9 (720x480) VBR
Auto Letterboxed
Audio:
Not specified (LinearPCM, 2 ch)
English Language Unit :
Title Menu

VTS_01 Menu
Video:
NTSC 16:9 (720x480) VBR
Auto Letterboxed
English Language Unit :
Root Menu

VTS_02 Menu
Video:
NTSC 16:9 (720x480) VBR
Auto Letterboxed
English Language Unit :
Root Menu
Audio Menu
Chapter (PTT) Menu

VTS_03 Menu
Video:
NTSC 16:9 (720x480) VBR
Auto Letterboxed
English Language Unit :
Root Menu


DVD2 - Scenes From The Big Chair

* 'Scenes From The Big Chair' Documentary
* Interview With Producer Chris Hughes

Promotional Videos
* The Way You Are
* Mothers Talk (UK Alternate Version)
* Mothers Talk
* Shout
* Everybody Wants To Rule The World
* Head Over Heels
* I Believe
* Mothers Talk (U.S. Version)
* Everybody Wants To Run The World

BBC TV Appearances
* The Way You Are - TOTP 22.12.83
* Mothers Talk - TOTP 16.08.84
* Mothers Talk - TOTP 30.08.84
* Shout - TOTP 03.01.85
* Everybody Wants To Rule The World - Wogan 13.03.85
* Everybody Wants To Rule The World - TOTP 03.85
* Everybody Wants To Rule The World - TOTP 04.85
* The Working Hour - Wogan 11.12.85


Title:
Size: 7.44 Gb ( 7 799 542,00 KBytes ) - DVD-9
Enabled regions: 1, 2, 3, 4, 5, 6, 7, 8

VTS_01 :
Play Length: 01:14:46
Video: NTSC 16:9 (720x480) VBR, Auto Letterboxed
Audio:
English (Dolby AC3, 2 ch)

VTS_02 :
Play Length: 00:34:57
Video: NTSC 16:9 (720x480) VBR, Auto Letterboxed
Audio:
English (Dolby AC3, 2 ch)

VTS_03 :
Play Length: 00:03:57+00:04:00+00:04:14+00:06:26+00:04:53+00:04:26+00:04:51+00:04:52+00:04:35+{00:03:57}+{00:04:00}+{00:04:14}+{00:06:26}+{00:04:53}+{00:04:26}+{00:04:51}+{00:04:52}+{00:04:35}
Video: NTSC 16:9 (720x480) VBR, Auto Letterboxed
Audio:
English (LinearPCM, 2 ch)

VTS_04 :
Play Length: 00:04:06+00:03:41+00:03:50+00:04:16+00:03:54+00:03:35+00:03:45+00:03:39+{00:04:06}+{00:03:41}+{00:03:50}+{00:04:16}+{00:03:54}+{00:03:35}+{00:03:45}+{00:03:39}
Video: NTSC 16:9 (720x480) VBR, Auto Letterboxed
Audio:
English (LinearPCM, 2 ch)

* Menus Information *

VIDEO_TS Menu
Video:
NTSC 16:9 (720x480) VBR
Auto Letterboxed
Audio:
Not specified (Dolby AC3, 6 ch)
English Language Unit :
Title Menu

VTS_01 Menu
Video:
NTSC 16:9 (720x480) VBR
Auto Letterboxed
English Language Unit :
Root Menu

VTS_02 Menu
Video:
NTSC 4:3 (720x480) VBR
Auto Pan&Scan, Auto Letterboxed
English Language Unit :
Root Menu

VTS_03 Menu
Video:
NTSC 16:9 (720x480) VBR
Auto Letterboxed
English Language Unit :
Root Menu

VTS_04 Menu
Video:
NTSC 16:9 (720x480) VBR
Auto Letterboxed
English Language Unit :
Root Menu


Personnel

* Roland Orzabal – guitar, keyboards, lead vocals, grand piano on 5, vocal styling on 8, bass synth and LinnDrum Programming on 1
* Curt Smith – bass guitar, vocals (lead vocals on 3 and 8)
* Ian Stanley – keyboards, synths, LinnDrum programming, arrangements on "Listen"
* Manny Elias – drums

Additional Personnel

* Chris Hughes – producer
* Dave Bascombe – engineer
* Paul King – management
* Tim O'Sullivan – cover photography
* "Shout": Sandy McLelland – backing vocals, Chris Hughes – drums
* "The Working Hour": Jerry Marotta – percussion, Will Gregory – saxophone solos, Mel Collins – saxophone, Andy Davis – grand piano
* "Everybody Wants to Rule the World": Neil Taylor – second guitar solo, Chris Hughes – drums and MIDI programming
* "Mothers Talk": Stevie Lange – backing vocals
* "I Believe": Will Gregory – saxophone
* "Broken": Neil Taylor – guitar solo
* "Head over Heels": Sandy McLelland – backing vocals, Andy Davis – grand piano, Annie McCaig – backing vocals, Marilyn Davis – backing vocals
* "Listen": Marilyn Davis – operatic vocal

Original Released: February 25, 1985
Recorded Date: December 1983 at Hammersmith Odeon, Hammersmith, England;[citation needed] 1984 at Wool Hall Studios, Beckington, Somerset, UK
CD Released Date: November 10, 2014
Format: 4xCD + 2xDVD, Album, Remastered
Length: 01:13:51 (CD1) + 01:18:17 (CD2) + 01:18:54 (CD3) + 01:13:46 (CD4) + 00:41:52 (DVD1) + 01:14:46(DVD2)


DVD1






DVD2















Ripped by ALLexxess


All links are interchangeable!


If you encounter broken links in this publication (or older publications too)... Please send me a private message
I will reply to you as quickly as possible!


http://www.nitroflare.com/view/C28FCA024CA00D1/ah.TFF.SFTBC.1985.2014--cd1--lossless.rar
http://www.nitroflare.com/view/F934FBDB8B92C7D/ah.TFF.SFTBC.1985.2014--cd1--mp3.rar

http://www.nitroflare.com/view/6EFDA004B3FC6D1/ah.TFF.SFTBC.1985.2014--cd2--lossless.rar
http://www.nitroflare.com/view/CA6F32C714F4A74/ah.TFF.SFTBC.1985.2014--cd2--mp3.rar

http://www.nitroflare.com/view/830EB2982DCEA90/ah.TFF.SFTBC.1985.2014--cd3--lossless.rar
http://www.nitroflare.com/view/B03793B638369C3/ah.TFF.SFTBC.1985.2014--cd3--mp3.rar

http://www.nitroflare.com/view/F542EEBE524723D/ah.TFF.SFTBC.1985.2014--cd4--lossless.rar
http://www.nitroflare.com/view/9CC25B568B3FCF6/ah.TFF.SFTBC.1985.2014--cd4--mp3.rar

http://www.nitroflare.com/view/1ECC80EBDA5998D/ah.TFF.SFTBC.1985.2014--dvd1.part01.rar
http://www.nitroflare.com/view/6838C37A771A822/ah.TFF.SFTBC.1985.2014--dvd1.part02.rar
http://www.nitroflare.com/view/18435A19F7ED9F7/ah.TFF.SFTBC.1985.2014--dvd1.part03.rar
http://www.nitroflare.com/view/C4084DB47D232E8/ah.TFF.SFTBC.1985.2014--dvd1.part04.rar
http://www.nitroflare.com/view/5A4738BDC09800D/ah.TFF.SFTBC.1985.2014--dvd1.part05.rar
http://www.nitroflare.com/view/548629248ECD46A/ah.TFF.SFTBC.1985.2014--dvd1.part06.rar
http://www.nitroflare.com/view/FFE30DCEACD3394/ah.TFF.SFTBC.1985.2014--dvd1.part07.rar
http://www.nitroflare.com/view/430DAF222CFB310/ah.TFF.SFTBC.1985.2014--dvd1.part08.rar
http://www.nitroflare.com/view/5E4B40CDF066858/ah.TFF.SFTBC.1985.2014--dvd1.part09.rar
http://www.nitroflare.com/view/B4F4165A0422687/ah.TFF.SFTBC.1985.2014--dvd1.part10.rar
http://www.nitroflare.com/view/E141D0B9A86A88C/ah.TFF.SFTBC.1985.2014--dvd1.part11.rar
http://www.nitroflare.com/view/6CAF537F6945672/ah.TFF.SFTBC.1985.2014--dvd1.part12.rar
http://www.nitroflare.com/view/52675215B580CDD/ah.TFF.SFTBC.1985.2014--dvd1.part13.rar
http://www.nitroflare.com/view/DBB8AC2FA9ED604/ah.TFF.SFTBC.1985.2014--dvd1.part14.rar

http://www.nitroflare.com/view/5469CD652C194F5/ah.TFF.SFTBC.1985.2014--dvd2.part01.rar
http://www.nitroflare.com/view/FE5C94EC6BA4DD9/ah.TFF.SFTBC.1985.2014--dvd2.part02.rar
http://www.nitroflare.com/view/0F3A15EB784A8A1/ah.TFF.SFTBC.1985.2014--dvd2.part03.rar
http://www.nitroflare.com/view/32133E46D06CBC5/ah.TFF.SFTBC.1985.2014--dvd2.part04.rar
http://www.nitroflare.com/view/5CADFB42DA4BC48/ah.TFF.SFTBC.1985.2014--dvd2.part05.rar
http://www.nitroflare.com/view/B8DAD4270E6E9C7/ah.TFF.SFTBC.1985.2014--dvd2.part06.rar
http://www.nitroflare.com/view/58391C40D674514/ah.TFF.SFTBC.1985.2014--dvd2.part07.rar
http://www.nitroflare.com/view/8B30743BBF27D60/ah.TFF.SFTBC.1985.2014--dvd2.part08.rar
http://www.nitroflare.com/view/E82E09A779EA5A0/ah.TFF.SFTBC.1985.2014--dvd2.part09.rar
http://www.nitroflare.com/view/3BAAA8F72CC114E/ah.TFF.SFTBC.1985.2014--dvd2.part10.rar
http://www.nitroflare.com/view/A9F6614057DFBC9/ah.TFF.SFTBC.1985.2014--dvd2.part11.rar
http://www.nitroflare.com/view/4C9005809C8D9CA/ah.TFF.SFTBC.1985.2014--dvd2.part12.rar
http://www.nitroflare.com/view/0BD1E086B883F4A/ah.TFF.SFTBC.1985.2014--dvd2.part13.rar
http://www.nitroflare.com/view/DC5D4A7FE070361/ah.TFF.SFTBC.1985.2014--dvd2.part14.rar

http://www.nitroflare.com/view/0973BB704857418/ah.TFF.SFTBC.1985.2014--scans.rar













































password: www.AvaxHome.ru