Вход в свой аккаунт

Или войдите через соц. сети

The B-52s - With The Wild Crowd! Live in Athens, GA (2011)


The B-52s - With The Wild Crowd! Live in Athens, GA (2011)
EAC Rip | FLAC (Img) + Cue + Log ~ 613 Mb | MP3 CBR320 ~ 205 Mb
Scans Included (JPG, 600 dpi) | RAR 5% Recovery
New Wave, Post-Punk, Pop-Rock | Eagle Records #OPYCD101

“ With the Wild Crowd! Live in Athens, GA is the first official live album by American new wave band The B-52s. On February 18, 2011 the band joyfully celebrated its 34th anniversary with a triumphant return to their hometown of Athens, GA. Wig-wearing, boa-draped, glitter-covered fans came from near and far to celebrate this historic event, which saw the band deliver a sizzling 90 minute set that turned Athens’ Classic Center into a cosmic dancehall. The concert was released on a CD, DVD and Blu-ray entitled The B-52s With The Wild Crowd! Live in Athens, GA. In a review of the CD, Chuck Howard from Scripps Howard News Service proclaimed, “How The B-52′s have maintained their endearing vitality after all these years is a wonder, yet fans who hear “With the Wild Crowd!” will doubtless wish immortality on this uplifting band.” ”




Track List:

01. Pump [0:04:45.18]
02. Private Idaho [0:03:45.55]
03. Mesopotamia [0:04:50.25]
04. Ultraviolet [0:04:21.28]
05. Give Me Back My Man [0:05:38.14]
06. Funplex [0:04:04.44]
07. Whammy Kiss [0:03:50.53]
08. Roam [0:05:03.74]
09. 52 Girls [0:03:46.53]
10. Party Out Of Bounds [0:03:53.06]
11. Love In The Year 3000 [0:04:15.70]
12. Cosmic Thing [0:03:58.31]
13. Hot Corner [0:03:27.62]
14. Band Intros [0:00:42.54]
15. Love Shack [0:05:44.44]
16. Wig [0:04:00.44]
17. Planet Claire [0:04:51.30]
18. Rock Lobster [0:05:23.72]

Exact Audio Copy V1.0 beta 3 from 29. August 2011

EAC extraction logfile from 25. June 2014, 14:02

The B-52's / With The Wild Crowd (OPYCD101)

Used drive : HL-DT-STDVDRAM GE20NU11 Adapter: 0 ID: 1

Read mode : Secure
Utilize accurate stream : Yes
Defeat audio cache : Yes
Make use of C2 pointers : No

Read offset correction : 667
Overread into Lead-In and Lead-Out : No
Fill up missing offset samples with silence : Yes
Delete leading and trailing silent blocks : No
Null samples used in CRC calculations : Yes
Used interface : Native Win32 interface for Win NT & 2000

Used output format : User Defined Encoder
Selected bitrate : 896 kBit/s
Quality : High
Add ID3 tag : No
Command line compressor : C:Program FilesEAC 3Exact Audio CopyFlacflac.exe
Additional command line options : -V -8 %source%


TOC of the extracted CD

Track | Start | Length | Start sector | End sector
---------------------------------------------------------
1 | 0:00.00 | 4:45.18 | 0 | 21392
2 | 4:45.18 | 3:45.55 | 21393 | 38322
3 | 8:30.73 | 4:50.25 | 38323 | 60097
4 | 13:21.23 | 4:21.28 | 60098 | 79700
5 | 17:42.51 | 5:38.14 | 79701 | 105064
6 | 23:20.65 | 4:04.44 | 105065 | 123408
7 | 27:25.34 | 3:50.53 | 123409 | 140711
8 | 31:16.12 | 5:03.74 | 140712 | 163510
9 | 36:20.11 | 3:46.53 | 163511 | 180513
10 | 40:06.64 | 3:53.06 | 180514 | 197994
11 | 43:59.70 | 4:15.70 | 197995 | 217189
12 | 48:15.65 | 3:58.31 | 217190 | 235070
13 | 52:14.21 | 3:27.62 | 235071 | 250657
14 | 55:42.08 | 0:42.54 | 250658 | 253861
15 | 56:24.62 | 5:44.44 | 253862 | 279705
16 | 62:09.31 | 4:00.44 | 279706 | 297749
17 | 66:10.00 | 4:51.30 | 297750 | 319604
18 | 71:01.30 | 5:23.72 | 319605 | 343901


Range status and errors

Selected range

Filename C:OdW2011 . With The Wild Crowd (OPYCD101)The B-52's - With The Wild Crowd (OPYCD101).wav

Peak level 100.0 %
Extraction speed 1.4 X
Range quality 100.0 %
Test CRC C83671DC
Copy CRC C83671DC
Copy OK

No errors occurred


AccurateRip summary

Track 1 accurately ripped (confidence 6) [022C65D2] (AR v2)
Track 2 accurately ripped (confidence 6) [9BA482F0] (AR v2)
Track 3 accurately ripped (confidence 6) [F64446C7] (AR v2)
Track 4 accurately ripped (confidence 6) [2BADDA16] (AR v2)
Track 5 accurately ripped (confidence 6) [D67E3C01] (AR v2)
Track 6 accurately ripped (confidence 6) [927F65A4] (AR v2)
Track 7 accurately ripped (confidence 6) [B8313446] (AR v2)
Track 8 accurately ripped (confidence 6) [103D2ED8] (AR v2)
Track 9 accurately ripped (confidence 6) [678FFEB0] (AR v2)
Track 10 accurately ripped (confidence 6) [134ECC5F] (AR v2)
Track 11 accurately ripped (confidence 6) [9A928B92] (AR v2)
Track 12 accurately ripped (confidence 6) [15E064CD] (AR v2)
Track 13 accurately ripped (confidence 6) [01CECD54] (AR v2)
Track 14 accurately ripped (confidence 6) [F6E7237E] (AR v2)
Track 15 accurately ripped (confidence 6) [3DFA96A7] (AR v2)
Track 16 accurately ripped (confidence 6) [DE02E7A6] (AR v2)
Track 17 accurately ripped (confidence 6) [82899556] (AR v2)
Track 18 accurately ripped (confidence 6) [DDA91B0E] (AR v2)

All tracks accurately ripped

End of status report

==== Log checksum 7E3DBF32DD7BB5D431464D1E20FC8CF2DF15DCDF2F885B19561DDDA9F716F4C4 ====

foobar2000 1.2.6 / Dynamic Range Meter 1.1.1
log date: 2015-01-31 19:42:59

--------------------------------------------------------------------------------
Analyzed: The B-52's / With The Wild Crowd (OPYCD101)
--------------------------------------------------------------------------------

DR Peak RMS Duration Track
--------------------------------------------------------------------------------
DR8 0.00 dB -8.50 dB 4:45 01-Pump
DR8 0.00 dB -8.77 dB 3:46 02-Private Idaho
DR8 0.00 dB -9.40 dB 4:50 03-Mesopotamia
DR7 0.00 dB -8.65 dB 4:21 04-Ultraviolet
DR8 0.00 dB -8.64 dB 5:38 05-Give Me Back My Man
DR7 0.00 dB -8.28 dB 4:05 06-Funplex
DR7 0.00 dB -8.41 dB 3:51 07-Whammy Kiss
DR8 0.00 dB -8.60 dB 5:04 08-Roam
DR7 0.00 dB -8.09 dB 3:47 09-52 Girls
DR7 0.00 dB -8.49 dB 3:53 10-Party Out Of Bounds
DR7 0.00 dB -8.40 dB 4:16 11-Love In The Year 3000
DR8 0.00 dB -8.46 dB 3:58 12-Cosmic Thing
DR8 0.00 dB -8.81 dB 3:28 13-Hot Corner
DR12 -1.60 dB -16.68 dB 0:43 14-Band Intros
DR7 0.00 dB -8.59 dB 5:45 15-Love Shack
DR7 0.00 dB -8.36 dB 4:01 16-Wig
DR7 0.00 dB -8.89 dB 4:51 17-Planet Claire
DR7 0.00 dB -8.10 dB 5:24 18-Rock Lobster
--------------------------------------------------------------------------------

Number of tracks: 18
Official DR value: DR8

Samplerate: 44100 Hz
Channels: 2
Bits per sample: 16
Bitrate: 1030 kbps
Codec: FLAC
================================================================================

[CUETools log; Date: 31.01.2015 19:37:28; Version: 2.1.5]
[CTDB TOCID: ss382aPipwytHZfwT3zcsaul4gA-] found.
Track | CTDB Status
1 | (12/12) Accurately ripped
2 | (12/12) Accurately ripped
3 | (12/12) Accurately ripped
4 | (12/12) Accurately ripped
5 | (12/12) Accurately ripped
6 | (12/12) Accurately ripped
7 | (12/12) Accurately ripped
8 | (12/12) Accurately ripped
9 | (12/12) Accurately ripped
10 | (12/12) Accurately ripped
11 | (11/12) Accurately ripped
12 | (12/12) Accurately ripped
13 | (12/12) Accurately ripped
14 | (12/12) Accurately ripped
15 | (12/12) Accurately ripped
16 | (11/12) Accurately ripped
17 | (12/12) Accurately ripped
18 | (12/12) Accurately ripped
[AccurateRip ID: 00327bb1-029a6c51-0611e912] found.
Track [ CRC | V2 ] Status
01 [43ad5d54|022c65d2] (03+09/24) Accurately ripped
02 [059198c0|9ba482f0] (03+09/24) Accurately ripped
03 [85e32668|f64446c7] (03+09/24) Accurately ripped
04 [081b6880|2badda16] (03+09/24) Accurately ripped
05 [55137b39|d67e3c01] (03+09/24) Accurately ripped
06 [a99b8781|927f65a4] (03+09/24) Accurately ripped
07 [ec24fbb4|b8313446] (03+09/24) Accurately ripped
08 [9f632a54|103d2ed8] (03+09/24) Accurately ripped
09 [0b6c03ab|678ffeb0] (03+09/24) Accurately ripped
10 [acfc5e2e|134ecc5f] (03+09/24) Accurately ripped
11 [037a0dfd|9a928b92] (03+09/24) Accurately ripped
12 [61e648da|15e064cd] (03+09/24) Accurately ripped
13 [6ac704ed|01cecd54] (03+09/24) Accurately ripped
14 [94626d08|f6e7237e] (03+09/24) Accurately ripped
15 [21204275|3dfa96a7] (03+09/24) Accurately ripped
16 [9084ab2d|de02e7a6] (03+09/23) Accurately ripped
17 [4e912853|82899556] (03+09/23) Accurately ripped
18 [d1414544|dda91b0e] (03+09/21) Accurately ripped
Offsetted by 36:
01 [df921895] (00/24) No match (V2 was not tested)
02 [748fffc4] (00/24) No match (V2 was not tested)
03 [c9c739e8] (00/24) No match (V2 was not tested)
04 [c7abde77] (00/24) No match (V2 was not tested)
05 [c8d2c01e] (00/24) No match (V2 was not tested)
06 [1e80af28] (00/24) No match (V2 was not tested)
07 [036af7e5] (00/24) No match (V2 was not tested)
08 [0115da72] (00/24) No match (V2 was not tested)
09 [844ae25d] (00/24) No match (V2 was not tested)
10 [53b17ea0] (00/24) No match (V2 was not tested)
11 [f73ec8fa] (00/24) No match (V2 was not tested)
12 [734fb585] (00/24) No match (V2 was not tested)
13 [e3adbc0b] (00/24) No match (V2 was not tested)
14 [81253ea8] (00/24) No match (V2 was not tested)
15 [72edebd1] (00/24) No match (V2 was not tested)
16 [f008ce9f] (00/23) No match (V2 was not tested)
17 [2d274527] (00/23) No match (V2 was not tested)
18 [64146393] (00/21) No match (V2 was not tested)
Offsetted by 48:
01 [4156548c] (00/24) No match (V2 was not tested)
02 [62ad2465] (00/24) No match (V2 was not tested)
03 [63ce27e9] (00/24) No match (V2 was not tested)
04 [8203dc6d] (00/24) No match (V2 was not tested)
05 [9d02f502] (00/24) No match (V2 was not tested)
06 [98a998e6] (00/24) No match (V2 was not tested)
07 [36521f89] (00/24) No match (V2 was not tested)
08 [e9177218] (00/24) No match (V2 was not tested)
09 [81b1e814] (00/24) No match (V2 was not tested)
10 [3e420d38] (00/24) No match (V2 was not tested)
11 [c51dbc78] (00/24) No match (V2 was not tested)
12 [c6eedd56] (00/24) No match (V2 was not tested)
13 [270dd5b5] (00/24) No match (V2 was not tested)
14 [553908b9] (00/24) No match (V2 was not tested)
15 [e534adb1] (00/24) No match (V2 was not tested)
16 [6554fdd3] (00/23) No match (V2 was not tested)
17 [af8d3d67] (00/23) No match (V2 was not tested)
18 [7138a896] (00/21) No match (V2 was not tested)

Track Peak [ CRC32 ] [W/O NULL] [ LOG ]
-- 100,0 [C83671DC] [9DD0B795] CRC32
01 100,0 [2C102B3D] [8E776740]
02 100,0 [FC9E5EED] [7EDC3530]
03 100,0 [584B2E1D] [F38DBBB1]
04 100,0 [74CB49F5] [5E30D51D]
05 100,0 [CAC96C0B] [71F99933]
06 100,0 [2A35A7C7] [65B3725B]
07 100,0 [8B523851] [2A29B2EE]
08 100,0 [AF1670D4] [66BC7927]
09 100,0 [C85FD5EC] [8774B419]
10 100,0 [47E9DC66] [9BF8977E]
11 100,0 [3F53B7D5] [012574AF]
12 100,0 [B34456DF] [EBCBA99C]
13 100,0 [EE5C205C] [8633C6F1]
14 83,1 [68B964E7] [39CE2200]
15 100,0 [AE6D2DE0] [A16D0DD6]
16 100,0 [3A87E0B5] [AB597541]
17 100,0 [058FECB1] [529C1131]
18 100,0 [17234663] [11473731]


All thanks go to Olaf der Weisse



Download: