VA - Saint-Germain-des-Prés Café: The Must-Have Playlist From Paris Vol.15 (2013)


VA - Saint-Germain-des-Prés Café: The Must-Have Playlist From Paris Vol.15 (2013)
EAC Rip | 2CDs | FLAC Tracks + Cue + Log - 983 MB | MP3 CBR @320 kbps - 344 MB | Full scans - 91.8 MB
Label: Wagram Music | Catalog.#: 3284582 | Genre: Nu Jazz, Downtempo

Haute couture downtempo back for your enjoyment. With more and more attention to the growing diversity of current electronic music and cool tempo. Saint Germain also pays homage to the roots, to the great names of downtempo, the lounge, and trip-hop by dedicating a full selection of legendary American label CD: Thievery Corporation.

CD1 - The Parisian Lifestyle Soundtrack

01. Fakear - Morning In Japan - 02:55
02. TY - Like You Never - 04:38
03. Harleighblu - Let Me Be - 03:42
04. DRagon Suplex - First Kiss - 05:02
05. The Avener - Fade Our Lines (Original Mix) - 03:01
06. Crazy P - Never Gonna Reach Me (Hot Toddy Mix) - 06:48
07. Ryan Dupree - Can You Handle It (Teenage Mutants Remix) - 04:59
08. La Fine Equipe - Gremlins - 03:25
09. Crayon - Give You Up (Darius Remix) - 05:04
10. Rey And Kjavik - Hwmym (Original Mix) - 05:12
11. Weiss - My Sister (Original Mix) - 03:28
12. Yuksek Feat. Oh Land - Last Of Our Kind (Michael Garcon Remix) - 05:16
13. Bakermat - Uitzicht - 04:08
14. Bart & Baker Feat. Pheel Balliana - Windows Of The World (Chris Coco Remix) - 04:53
15. Klangkarussell - Sonnentanz (Sascha Braemer Remix) - 04:55
16. Liquid Phonk - Heart & Soul (Original Mix) - 04:39
17. Sailor & I - Tough Love (Pablo Nouvelle Remix) - 03:51
18. Nightmares On Wax - You Wish (Original Mix) - 02:59


Exact Audio Copy V1.0 beta 3 from 29. August 2011

EAC extraction logfile from 3. January 2015, 0:09

Various Artists / CD1 - The Parisian Lifestyle Soundtrack

Used drive : ASUS DRW-24B3ST Adapter: 3 ID: 0

Read mode : Secure
Utilize accurate stream : Yes
Defeat audio cache : Yes
Make use of C2 pointers : No

Read offset correction : 6
Overread into Lead-In and Lead-Out : No
Fill up missing offset samples with silence : Yes
Delete leading and trailing silent blocks : No
Null samples used in CRC calculations : Yes
Used interface : Native Win32 interface for Win NT & 2000
Gap handling : Appended to previous track

Used output format : User Defined Encoder
Selected bitrate : 896 kBit/s
Quality : High
Add ID3 tag : No
Command line compressor : C:Program Files (x86)Exact Audio CopyFlacflac.exe
Additional command line options : -8 -V -T "ARTIST=%artist%" -T "TITLE=%title%" -T "ALBUM=%albumtitle%" -T "DATE=%year%" -T "TRACKNUMBER=%tracknr%" -T "GENRE=%genre%" -T "COMMENT=ripped by Oleandris" %source%


TOC of the extracted CD

Track | Start | Length | Start sector | End sector
---------------------------------------------------------
1 | 0:00.00 | 2:55.21 | 0 | 13145
2 | 2:55.21 | 4:37.18 | 13146 | 33938
3 | 7:32.39 | 3:42.11 | 33939 | 50599
4 | 11:14.50 | 5:02.01 | 50600 | 73250
5 | 16:16.51 | 3:00.51 | 73251 | 86801
6 | 19:17.27 | 6:47.17 | 86802 | 117343
7 | 26:04.44 | 4:58.24 | 117344 | 139717
8 | 31:02.68 | 3:25.03 | 139718 | 155095
9 | 34:27.71 | 5:03.25 | 155096 | 177845
10 | 39:31.21 | 5:12.00 | 177846 | 201245
11 | 44:43.21 | 3:28.00 | 201246 | 216845
12 | 48:11.21 | 5:15.47 | 216846 | 240517
13 | 53:26.68 | 4:07.17 | 240518 | 259059
14 | 57:34.10 | 4:53.06 | 259060 | 281040
15 | 62:27.16 | 4:54.53 | 281041 | 303143
16 | 67:21.69 | 4:39.00 | 303144 | 324068
17 | 72:00.69 | 3:51.19 | 324069 | 341412
18 | 75:52.13 | 2:58.55 | 341413 | 354817


Track 1

Filename F:ЗАГРУЗКИ Saint-Germain-des-Pres Cafe. The Must-Have Playlist From Paris Vol.15 2CD (2013)CD1 - The Parisian Lifestyle Soundtrack1. Fakear - Morning In Japan.wav

Pre-gap length 0:00:02.00

Peak level 78.8 %
Extraction speed 4.2 X
Track quality 99.9 %
Test CRC B90B0258
Copy CRC B90B0258
Accurately ripped (confidence 5) [68989E88] (AR v2)
Copy OK

Track 2

Filename F:ЗАГРУЗКИ Saint-Germain-des-Pres Cafe. The Must-Have Playlist From Paris Vol.15 2CD (2013)CD1 - The Parisian Lifestyle Soundtrack2. TY - Like You Never.wav

Peak level 97.6 %
Extraction speed 5.3 X
Track quality 99.9 %
Test CRC C8E47340
Copy CRC C8E47340
Accurately ripped (confidence 5) [5445BF80] (AR v2)
Copy OK

Track 3

Filename F:ЗАГРУЗКИ Saint-Germain-des-Pres Cafe. The Must-Have Playlist From Paris Vol.15 2CD (2013)CD1 - The Parisian Lifestyle Soundtrack3. Harleighblu - Let Me Be.wav

Peak level 97.7 %
Extraction speed 6.5 X
Track quality 100.0 %
Test CRC 0EFE0AE6
Copy CRC 0EFE0AE6
Accurately ripped (confidence 5) [B019462B] (AR v2)
Copy OK

Track 4

Filename F:ЗАГРУЗКИ Saint-Germain-des-Pres Cafe. The Must-Have Playlist From Paris Vol.15 2CD (2013)CD1 - The Parisian Lifestyle Soundtrack4. DRagon Suplex - First Kiss.wav

Peak level 97.6 %
Extraction speed 7.2 X
Track quality 100.0 %
Test CRC 723F0AEE
Copy CRC 723F0AEE
Accurately ripped (confidence 5) [662179BC] (AR v2)
Copy OK

Track 5

Filename F:ЗАГРУЗКИ Saint-Germain-des-Pres Cafe. The Must-Have Playlist From Paris Vol.15 2CD (2013)CD1 - The Parisian Lifestyle Soundtrack5. The Avener - Fade Our Lines (Original Mix).wav

Peak level 97.6 %
Extraction speed 7.1 X
Track quality 100.0 %
Test CRC 9390E3D0
Copy CRC 9390E3D0
Accurately ripped (confidence 5) [BFC56625] (AR v2)
Copy OK

Track 6

Filename F:ЗАГРУЗКИ Saint-Germain-des-Pres Cafe. The Must-Have Playlist From Paris Vol.15 2CD (2013)CD1 - The Parisian Lifestyle Soundtrack6. Crazy P - Never Gonna Reach Me (Hot Toddy Mix).wav

Peak level 97.6 %
Extraction speed 8.3 X
Track quality 100.0 %
Test CRC DEA8F4E2
Copy CRC DEA8F4E2
Accurately ripped (confidence 5) [FB2C5EC8] (AR v2)
Copy OK

Track 7

Filename F:ЗАГРУЗКИ Saint-Germain-des-Pres Cafe. The Must-Have Playlist From Paris Vol.15 2CD (2013)CD1 - The Parisian Lifestyle Soundtrack7. Ryan Dupree - Can You Handle It (Teenage Mutants Remix).wav

Peak level 97.6 %
Extraction speed 8.6 X
Track quality 100.0 %
Test CRC 2258D84A
Copy CRC 2258D84A
Accurately ripped (confidence 5) [5F1F6B09] (AR v2)
Copy OK

Track 8

Filename F:ЗАГРУЗКИ Saint-Germain-des-Pres Cafe. The Must-Have Playlist From Paris Vol.15 2CD (2013)CD1 - The Parisian Lifestyle Soundtrack8. La Fine Equipe - Gremlins.wav

Peak level 97.6 %
Extraction speed 8.5 X
Track quality 100.0 %
Test CRC 60F00D9D
Copy CRC 60F00D9D
Accurately ripped (confidence 5) [AD89309C] (AR v2)
Copy OK

Track 9

Filename F:ЗАГРУЗКИ Saint-Germain-des-Pres Cafe. The Must-Have Playlist From Paris Vol.15 2CD (2013)CD1 - The Parisian Lifestyle Soundtrack9. Crayon - Give You Up (Darius Remix).wav

Peak level 97.6 %
Extraction speed 9.2 X
Track quality 100.0 %
Test CRC F916CCA9
Copy CRC F916CCA9
Accurately ripped (confidence 5) [F3F01181] (AR v2)
Copy OK

Track 10

Filename F:ЗАГРУЗКИ Saint-Germain-des-Pres Cafe. The Must-Have Playlist From Paris Vol.15 2CD (2013)CD1 - The Parisian Lifestyle Soundtrack10. Rey And Kjavik - Hwmym (Original Mix).wav

Peak level 97.6 %
Extraction speed 9.7 X
Track quality 100.0 %
Test CRC D2E8DD64
Copy CRC D2E8DD64
Accurately ripped (confidence 5) [B21D531C] (AR v2)
Copy OK

Track 11

Filename F:ЗАГРУЗКИ Saint-Germain-des-Pres Cafe. The Must-Have Playlist From Paris Vol.15 2CD (2013)CD1 - The Parisian Lifestyle Soundtrack11. Weiss - My Sister (Original Mix).wav

Peak level 97.6 %
Extraction speed 9.4 X
Track quality 100.0 %
Test CRC C47E35F9
Copy CRC C47E35F9
Accurately ripped (confidence 5) [C538CB5C] (AR v2)
Copy OK

Track 12

Filename F:ЗАГРУЗКИ Saint-Germain-des-Pres Cafe. The Must-Have Playlist From Paris Vol.15 2CD (2013)CD1 - The Parisian Lifestyle Soundtrack12. Yuksek Feat. Oh Land - Last Of Our Kind (Michael Garcon Remix).wav

Peak level 97.7 %
Extraction speed 10.2 X
Track quality 100.0 %
Test CRC 33AAACE9
Copy CRC 33AAACE9
Accurately ripped (confidence 5) [C023C1BC] (AR v2)
Copy OK

Track 13

Filename F:ЗАГРУЗКИ Saint-Germain-des-Pres Cafe. The Must-Have Playlist From Paris Vol.15 2CD (2013)CD1 - The Parisian Lifestyle Soundtrack13. Bakermat - Uitzicht.wav

Peak level 97.6 %
Extraction speed 10.2 X
Track quality 100.0 %
Test CRC 0FD77FE1
Copy CRC 0FD77FE1
Accurately ripped (confidence 5) [BFF6D44E] (AR v2)
Copy OK

Track 14

Filename F:ЗАГРУЗКИ Saint-Germain-des-Pres Cafe. The Must-Have Playlist From Paris Vol.15 2CD (2013)CD1 - The Parisian Lifestyle Soundtrack14. Bart & Baker Feat. Pheel Balliana - Windows Of The World (Chris Coco Remix).wav

Peak level 97.7 %
Extraction speed 10.7 X
Track quality 100.0 %
Test CRC BDC1A285
Copy CRC BDC1A285
Accurately ripped (confidence 5) [637D9E16] (AR v2)
Copy OK

Track 15

Filename F:ЗАГРУЗКИ Saint-Germain-des-Pres Cafe. The Must-Have Playlist From Paris Vol.15 2CD (2013)CD1 - The Parisian Lifestyle Soundtrack15. Klangkarussell - Sonnentanz (Sascha Braemer Remix).wav

Peak level 97.7 %
Extraction speed 11.0 X
Track quality 100.0 %
Test CRC B4751576
Copy CRC B4751576
Accurately ripped (confidence 5) [6EAE1935] (AR v2)
Copy OK

Track 16

Filename F:ЗАГРУЗКИ Saint-Germain-des-Pres Cafe. The Must-Have Playlist From Paris Vol.15 2CD (2013)CD1 - The Parisian Lifestyle Soundtrack16. Liquid Phonk - Heart & Soul (Original Mix).wav

Peak level 97.7 %
Extraction speed 11.3 X
Track quality 100.0 %
Test CRC D6A43718
Copy CRC D6A43718
Accurately ripped (confidence 5) [C5A40EBE] (AR v2)
Copy OK

Track 17

Filename F:ЗАГРУЗКИ Saint-Germain-des-Pres Cafe. The Must-Have Playlist From Paris Vol.15 2CD (2013)CD1 - The Parisian Lifestyle Soundtrack17. Sailor & I - Tough Love (Pablo Nouvelle Remix).wav

Peak level 97.6 %
Extraction speed 11.2 X
Track quality 100.0 %
Test CRC 623081AF
Copy CRC 623081AF
Accurately ripped (confidence 5) [680D52F9] (AR v2)
Copy OK

Track 18

Filename F:ЗАГРУЗКИ Saint-Germain-des-Pres Cafe. The Must-Have Playlist From Paris Vol.15 2CD (2013)CD1 - The Parisian Lifestyle Soundtrack18. Nightmares On Wax - You Wish (Original Mix).wav

Peak level 97.6 %
Extraction speed 10.9 X
Track quality 100.0 %
Test CRC 1870AE64
Copy CRC 1870AE64
Accurately ripped (confidence 5) [82CF714B] (AR v2)
Copy OK


All tracks accurately ripped

No errors occurred

End of status report

---- CUETools DB Plugin V2.1.3

[CTDB TOCID: xqcnOa1qSTR5kt7f4l146I0SNoM-] found, Submit result: xqcnOa1qSTR5kt7f4l146I0SNoM- has been confirmed
[62f804ce] (4/4) Accurately ripped


==== Log checksum AC085FD32818519E6295BCC73EF24DA8491FCDDE836AEB551A5BBF58D0AF81D9 ====


[CUETools log; Date: 2/5/2015 5:25:06 AM; Version: 2.1.5]
[CTDB TOCID: xqcnOa1qSTR5kt7f4l146I0SNoM-] found.
Track | CTDB Status
1 | (5/5) Accurately ripped
2 | (5/5) Accurately ripped
3 | (5/5) Accurately ripped
4 | (5/5) Accurately ripped
5 | (5/5) Accurately ripped
6 | (5/5) Accurately ripped
7 | (5/5) Accurately ripped
8 | (5/5) Accurately ripped
9 | (5/5) Accurately ripped
10 | (5/5) Accurately ripped
11 | (5/5) Accurately ripped
12 | (5/5) Accurately ripped
13 | (5/5) Accurately ripped
14 | (5/5) Accurately ripped
15 | (5/5) Accurately ripped
16 | (5/5) Accurately ripped
17 | (5/5) Accurately ripped
18 | (5/5) Accurately ripped
[AccurateRip ID: 00336ba9-02b42d79-28127a12] found.
Track [ CRC | V2 ] Status
01 [daf180cf|68989e88] (0+7/7) Accurately ripped
02 [04c179a7|5445bf80] (0+7/7) Accurately ripped
03 [3a63134e|b019462b] (0+7/7) Accurately ripped
04 [ffa7c600|662179bc] (0+7/7) Accurately ripped
05 [e184b977|bfc56625] (0+7/7) Accurately ripped
06 [47c868cb|fb2c5ec8] (0+7/7) Accurately ripped
07 [a1e1e53c|5f1f6b09] (0+7/7) Accurately ripped
08 [004ea801|ad89309c] (0+7/7) Accurately ripped
09 [b531cc72|f3f01181] (0+7/7) Accurately ripped
10 [5b902c11|b21d531c] (0+7/7) Accurately ripped
11 [531f3aaa|c538cb5c] (0+7/7) Accurately ripped
12 [c5f1ccc2|c023c1bc] (0+7/7) Accurately ripped
13 [d85244fe|bff6d44e] (0+7/7) Accurately ripped
14 [79f2f54e|637d9e16] (0+7/7) Accurately ripped
15 [a4cbcebe|6eae1935] (0+7/7) Accurately ripped
16 [c8c04021|c5a40ebe] (0+7/7) Accurately ripped
17 [9527e042|680d52f9] (0+7/7) Accurately ripped
18 [708cec63|82cf714b] (0+7/7) Accurately ripped

Track Peak [ CRC32 ] [W/O NULL] [ LOG ]
-- 97.7 [46CF793A] [0CEEB5F9]
01 78.8 [B90B0258] [09D223ED] CRC32
02 97.6 [C8E47340] [B654C7BD] CRC32
03 97.7 [0EFE0AE6] [5E666162] CRC32
04 97.6 [723F0AEE] [69C30206] CRC32
05 97.6 [9390E3D0] [217FD748] CRC32
06 97.6 [DEA8F4E2] [DEED4D98] CRC32
07 97.6 [2258D84A] [06FB2777] CRC32
08 97.6 [60F00D9D] [28373EDD] CRC32
09 97.6 [F916CCA9] [5EA81000] CRC32
10 97.6 [D2E8DD64] [7671C261] CRC32
11 97.6 [C47E35F9] [0175470F] CRC32
12 97.7 [33AAACE9] [CE474EAE] CRC32
13 97.6 [0FD77FE1] [7E69FBAB] CRC32
14 97.7 [BDC1A285] [E6479426] CRC32
15 97.7 [B4751576] [715328E8] CRC32
16 97.7 [D6A43718] [8620253B] CRC32
17 97.6 [623081AF] [0CD9D223] CRC32
18 97.6 [1870AE64] [F571DF9D] CRC32


CD2 - Selected & Mixed Thievery Corporation

01. Vendendo Saude & Fe - Ocote Soul Sounds & Adrian Quesada - 03:09
02. Democrazy - Congo Sanchez - 03:15
03. Tamarindo (Thievery Corporation Mix) - Ocote Soul Sounds - 04:09
04. El pueblo unido (Jeremy Sole feat. Quantic Remix) - Thievery Corporation - 03:31
05. Road to Benares (Bombay Dub Orchestra Remix) - Thunderball - 05:05
06. Corazon (Ursula 1000 Remix) - Federico Aubele - 03:09
07. Oblivion (Make Remix) - Ancient Astronauts - Oblivion (Make Remix) - 05:23
08. A Dub for Mali - Afrolicious - 05:39
09. Diablo (Sabo’s Moombahton Remix) - Novalima - 04:44
10. Bade Malou (Second Sky & Thomas Blondet Remix) - Afrolicious - 04:49
11. Experience Belly Disco (Beat Fanatic Remix) - Karminsky - 03:43
12. La Reja (Nickodemus Remix) - Ocote Soul Sounds & Adrian Quesada - 05:06
13. Vampires (feat. Femi Kuti) [Afrolicious and Rob Garza Remix] - Thievery Corporation - 06:50
14. The Love Feeling (Christian Prommer Remix) - Nickodemus - 08:38


Exact Audio Copy V1.0 beta 3 from 29. August 2011

EAC extraction logfile from 3. January 2015, 0:28

Various Artists / CD2 - Selected & Mixed Thievery Corporation

Used drive : PLEXTOR DVDR PX-L890SA Adapter: 5 ID: 0

Read mode : Secure
Utilize accurate stream : Yes
Defeat audio cache : Yes
Make use of C2 pointers : No

Read offset correction : 6
Overread into Lead-In and Lead-Out : No
Fill up missing offset samples with silence : Yes
Delete leading and trailing silent blocks : No
Null samples used in CRC calculations : Yes
Used interface : Native Win32 interface for Win NT & 2000
Gap handling : Appended to previous track

Used output format : User Defined Encoder
Selected bitrate : 896 kBit/s
Quality : High
Add ID3 tag : No
Command line compressor : C:Program Files (x86)Exact Audio CopyFlacflac.exe
Additional command line options : -8 -V -T "ARTIST=%artist%" -T "TITLE=%title%" -T "ALBUM=%albumtitle%" -T "DATE=%year%" -T "TRACKNUMBER=%tracknr%" -T "GENRE=%genre%" -T "COMMENT=ripped by Oleandris" %source%


TOC of the extracted CD

Track | Start | Length | Start sector | End sector
---------------------------------------------------------
1 | 0:00.00 | 3:08.43 | 0 | 14142
2 | 3:08.43 | 3:14.33 | 14143 | 28725
3 | 6:23.01 | 4:08.58 | 28726 | 47383
4 | 10:31.59 | 3:30.39 | 47384 | 63172
5 | 14:02.23 | 5:04.66 | 63173 | 86038
6 | 19:07.14 | 3:08.65 | 86039 | 100203
7 | 22:16.04 | 5:23.00 | 100204 | 124428
8 | 27:39.04 | 5:39.10 | 124429 | 149863
9 | 33:18.14 | 4:43.61 | 149864 | 171149
10 | 38:02.00 | 4:48.72 | 171150 | 192821
11 | 42:50.72 | 3:42.44 | 192822 | 209515
12 | 46:33.41 | 5:05.37 | 209516 | 232427
13 | 51:39.03 | 6:49.13 | 232428 | 263115
14 | 58:28.16 | 8:37.09 | 263116 | 301899


Track 1

Filename F:ЗАГРУЗКИ Saint-Germain-des-Pres Cafe. The Must-Have Playlist From Paris Vol.15 2CD (2013)CD2 - Selected & Mixed Thievery Corporation1. Vendendo Saude & Fe - Ocote Soul Sounds & Adrian Quesada.wav

Pre-gap length 0:00:02.00

Peak level 94.3 %
Extraction speed 4.2 X
Track quality 99.9 %
Test CRC 9CDE4473
Copy CRC 9CDE4473
Accurately ripped (confidence 5) [4B997C3B] (AR v2)
Copy OK

Track 2

Filename F:ЗАГРУЗКИ Saint-Germain-des-Pres Cafe. The Must-Have Playlist From Paris Vol.15 2CD (2013)CD2 - Selected & Mixed Thievery Corporation2. Democrazy - Congo Sanchez.wav

Peak level 94.3 %
Extraction speed 5.6 X
Track quality 100.0 %
Test CRC 9108BC39
Copy CRC 9108BC39
Accurately ripped (confidence 5) [86F14F20] (AR v2)
Copy OK

Track 3

Filename F:ЗАГРУЗКИ Saint-Germain-des-Pres Cafe. The Must-Have Playlist From Paris Vol.15 2CD (2013)CD2 - Selected & Mixed Thievery Corporation3. Tamarindo (Thievery Corporation Mix) - Ocote Soul Sounds.wav

Peak level 94.3 %
Extraction speed 6.3 X
Track quality 100.0 %
Test CRC 6963B142
Copy CRC 6963B142
Accurately ripped (confidence 5) [306FB945] (AR v2)
Copy OK

Track 4

Filename F:ЗАГРУЗКИ Saint-Germain-des-Pres Cafe. The Must-Have Playlist From Paris Vol.15 2CD (2013)CD2 - Selected & Mixed Thievery Corporation4. El pueblo unido (Jeremy Sole feat. Quantic Remix) - Thievery Corporation.wav

Peak level 94.3 %
Extraction speed 6.5 X
Track quality 100.0 %
Test CRC 3BD66F16
Copy CRC 3BD66F16
Accurately ripped (confidence 5) [568053C6] (AR v2)
Copy OK

Track 5

Filename F:ЗАГРУЗКИ Saint-Germain-des-Pres Cafe. The Must-Have Playlist From Paris Vol.15 2CD (2013)CD2 - Selected & Mixed Thievery Corporation5. Road to Benares (Bombay Dub Orchestra Remix) - Thunderball.wav

Peak level 94.3 %
Extraction speed 7.4 X
Track quality 100.0 %
Test CRC 6493394B
Copy CRC 6493394B
Accurately ripped (confidence 5) [30F6DF89] (AR v2)
Copy OK

Track 6

Filename F:ЗАГРУЗКИ Saint-Germain-des-Pres Cafe. The Must-Have Playlist From Paris Vol.15 2CD (2013)CD2 - Selected & Mixed Thievery Corporation6. Corazon (Ursula 1000 Remix) - Federico Aubele.wav

Peak level 94.3 %
Extraction speed 5.9 X
Track quality 99.9 %
Test CRC 13B27C72
Copy CRC 13B27C72
Accurately ripped (confidence 5) [9C43EC14] (AR v2)
Copy OK

Track 7

Filename F:ЗАГРУЗКИ Saint-Germain-des-Pres Cafe. The Must-Have Playlist From Paris Vol.15 2CD (2013)CD2 - Selected & Mixed Thievery Corporation7. Oblivion (Make Remix) - Ancient Astronauts - Oblivion (Make Remix).wav

Peak level 94.3 %
Extraction speed 7.2 X
Track quality 99.9 %
Test CRC E1B1247E
Copy CRC E1B1247E
Accurately ripped (confidence 5) [F0F3E913] (AR v2)
Copy OK

Track 8

Filename F:ЗАГРУЗКИ Saint-Germain-des-Pres Cafe. The Must-Have Playlist From Paris Vol.15 2CD (2013)CD2 - Selected & Mixed Thievery Corporation8. A Dub for Mali - Afrolicious.wav

Peak level 94.3 %
Extraction speed 8.7 X
Track quality 100.0 %
Test CRC 412D58B0
Copy CRC 412D58B0
Accurately ripped (confidence 5) [6EDE67A4] (AR v2)
Copy OK

Track 9

Filename F:ЗАГРУЗКИ Saint-Germain-des-Pres Cafe. The Must-Have Playlist From Paris Vol.15 2CD (2013)CD2 - Selected & Mixed Thievery Corporation9. Diablo (Sabo’s Moombahton Remix) - Novalima.wav

Peak level 94.3 %
Extraction speed 8.9 X
Track quality 100.0 %
Test CRC 55CB919C
Copy CRC 55CB919C
Accurately ripped (confidence 5) [23980F90] (AR v2)
Copy OK

Track 10

Filename F:ЗАГРУЗКИ Saint-Germain-des-Pres Cafe. The Must-Have Playlist From Paris Vol.15 2CD (2013)CD2 - Selected & Mixed Thievery Corporation10. Bade Malou (Second Sky & Thomas Blondet Remix) - Afrolicious.wav

Peak level 94.3 %
Extraction speed 9.4 X
Track quality 100.0 %
Test CRC 935C42A0
Copy CRC 935C42A0
Accurately ripped (confidence 5) [3E7DFD2B] (AR v2)
Copy OK

Track 11

Filename F:ЗАГРУЗКИ Saint-Germain-des-Pres Cafe. The Must-Have Playlist From Paris Vol.15 2CD (2013)CD2 - Selected & Mixed Thievery Corporation11. Experience Belly Disco (Beat Fanatic Remix) - Karminsky.wav

Peak level 94.3 %
Extraction speed 9.3 X
Track quality 100.0 %
Test CRC E62C5C79
Copy CRC E62C5C79
Accurately ripped (confidence 5) [79528512] (AR v2)
Copy OK

Track 12

Filename F:ЗАГРУЗКИ Saint-Germain-des-Pres Cafe. The Must-Have Playlist From Paris Vol.15 2CD (2013)CD2 - Selected & Mixed Thievery Corporation12. La Reja (Nickodemus Remix) - Ocote Soul Sounds & Adrian Quesada.wav

Peak level 94.3 %
Extraction speed 10.1 X
Track quality 100.0 %
Test CRC 0F25DAA3
Copy CRC 0F25DAA3
Accurately ripped (confidence 5) [D9B11190] (AR v2)
Copy OK

Track 13

Filename F:ЗАГРУЗКИ Saint-Germain-des-Pres Cafe. The Must-Have Playlist From Paris Vol.15 2CD (2013)CD2 - Selected & Mixed Thievery Corporation13. Vampires (feat. Femi Kuti) [Afrolicious and Rob Garza Remix] - Thievery Corporation.wav

Peak level 94.3 %
Extraction speed 10.7 X
Track quality 100.0 %
Test CRC 79A5A078
Copy CRC 79A5A078
Accurately ripped (confidence 5) [A64D815E] (AR v2)
Copy OK

Track 14

Filename F:ЗАГРУЗКИ Saint-Germain-des-Pres Cafe. The Must-Have Playlist From Paris Vol.15 2CD (2013)CD2 - Selected & Mixed Thievery Corporation14. The Love Feeling (Christian Prommer Remix) - Nickodemus.wav

Peak level 94.3 %
Extraction speed 11.4 X
Track quality 100.0 %
Test CRC 94F220AC
Copy CRC 94F220AC
Accurately ripped (confidence 5) [33CB0F56] (AR v2)
Copy OK


All tracks accurately ripped

No errors occurred

End of status report

---- CUETools DB Plugin V2.1.3

[CTDB TOCID: IqyhGdCoTFAvcEmrkm4rYQFREg0-] found, Submit result: IqyhGdCoTFAvcEmrkm4rYQFREg0- has been confirmed
[da5e26a5] (4/4) Accurately ripped


==== Log checksum 379A32B101F7217F3963D0F13999E2A3F3A13FC2F74F341B6D955FC42519BE83 ====


[CUETools log; Date: 2/5/2015 5:50:02 AM; Version: 2.1.5]
[CTDB TOCID: IqyhGdCoTFAvcEmrkm4rYQFREg0-] found.
Track | CTDB Status
1 | (5/5) Accurately ripped
2 | (5/5) Accurately ripped
3 | (5/5) Accurately ripped
4 | (5/5) Accurately ripped
5 | (5/5) Accurately ripped
6 | (5/5) Accurately ripped
7 | (5/5) Accurately ripped
8 | (5/5) Accurately ripped
9 | (5/5) Accurately ripped
10 | (5/5) Accurately ripped
11 | (5/5) Accurately ripped
12 | (5/5) Accurately ripped
13 | (5/5) Accurately ripped
14 | (5/5) Accurately ripped
[AccurateRip ID: 001e497e-014c106e-ab0fb90e] found.
Track [ CRC | V2 ] Status
01 [7fab5c4e|4b997c3b] (0+7/7) Accurately ripped
02 [5ff4a0e9|86f14f20] (0+7/7) Accurately ripped
03 [4f50bf92|306fb945] (0+7/7) Accurately ripped
04 [bd1945c9|568053c6] (0+7/7) Accurately ripped
05 [cd417b08|30f6df89] (0+7/7) Accurately ripped
06 [ef5b28ad|9c43ec14] (0+7/7) Accurately ripped
07 [a4e01c11|f0f3e913] (0+7/7) Accurately ripped
08 [84e56b2f|6ede67a4] (0+7/7) Accurately ripped
09 [cfa99c20|23980f90] (0+7/7) Accurately ripped
10 [3be8eac0|3e7dfd2b] (0+7/7) Accurately ripped
11 [c595fe06|79528512] (0+7/7) Accurately ripped
12 [b78c8ae7|d9b11190] (0+7/7) Accurately ripped
13 [262a660d|a64d815e] (0+7/7) Accurately ripped
14 [3d810954|33cb0f56] (0+7/7) Accurately ripped

Track Peak [ CRC32 ] [W/O NULL] [ LOG ]
-- 94.3 [7D4C2161] [E29988F3]
01 94.3 [9CDE4473] [7BBF4A69] CRC32
02 94.3 [9108BC39] [38265D18] CRC32
03 94.3 [6963B142] [8D9DAAB1] CRC32
04 94.3 [3BD66F16] [0111DA9F] CRC32
05 94.3 [6493394B] [DEAEA5D8] CRC32
06 94.3 [13B27C72] [6CEE3C32] CRC32
07 94.3 [E1B1247E] [57072A36] CRC32
08 94.3 [412D58B0] [5FB87698] CRC32
09 94.3 [55CB919C] [6051443C] CRC32
10 94.3 [935C42A0] [C39F2B8C] CRC32
11 94.3 [E62C5C79] [67DF837C] CRC32
12 94.3 [0F25DAA3] [E0E76007] CRC32
13 94.3 [79A5A078] [D6B0D987] CRC32
14 94.3 [94F220AC] [903C1454] CRC32


Released Date: Nov 25, 2013
Format: 2 x CD, Compilation
Length: 1:18:50 (CD1) + 1:07:05 (CD2)



Ripped by Oleandris


All links are interchangeable!

If you encounter broken links in this publication (or older publications too)... Please send me a private message
I will reply to you as quickly as possible!










password: www.AvaxHome.ru