Вход в свой аккаунт

Или войдите через соц. сети

Chet Atkins, C.G.P. - Stay Tuned (1985) [Repost, New Rip]


Chet Atkins, C.G.P. - Stay Tuned (1985)
EAC | FLAC | Image (Cue&Log) ~ 219 Mb (incl 5%) | Mp3 (CBR320) ~ 105 Mb (incl 5%) | Scans included
Genre: Country Pop, Guitar Jazz, Finger-Picked Guitar | Label: Columbia | # CK 39591 | Time: 00:37:16

“ After decades of recording for RCA Victor, Atkins switched labels; this 1985 effort is a summit meeting of sorts with young guitar hotshots like Larry Carlton, George Benson, Mark Knopfler, Steve Lukather, and Earl Klugh, plus session A-teamers like Boots Randolph, Larrie Londin, David Hungate, Mark O'Connor and others. Atkins' tone is, as usual, faultless, and his playing superb. If the "meetings" don't always come off, it's usually due to the overzealousness of the other guitar players (Lukather's over-the-top style screams '80s big hair, for instance), not Chet, whose playing always exercises the utmost in restraint in every situation. All in all, a good modern-day Chet Atkins album, but not the place to start a collection.

Review by Cub Koda, Allmusic.com
”







Tracklist:

01. Sunrise (04:11)
02. Please Stay Tuned (04:04)
03. Quiet Eyes (03:34)
04. A Mouse in the House (03:55)
05. Some Leather and Lace (03:59)
06. The Cricket Ballet (03:32)
07. Cosmic Square Dance (04:16)
08. The Boot and the Stone (03:59)
09. Tap Room (04:10)
10. If I Should Lose You (01:32)


Exact Audio Copy V1.0 beta 4 from 7. December 2014

EAC extraction logfile from 30. January 2015, 11:58

Chet Atkins / Stay Tuned

Used drive : ASUS SDRW-08D1S-U Adapter: 1 ID: 1

Read mode : Secure
Utilize accurate stream : Yes
Defeat audio cache : Yes
Make use of C2 pointers : No

Read offset correction : 667
Overread into Lead-In and Lead-Out : No
Fill up missing offset samples with silence : Yes
Delete leading and trailing silent blocks : No
Null samples used in CRC calculations : Yes
Used interface : Native Win32 interface for Win NT & 2000

Used output format : User Defined Encoder
Selected bitrate : 128 kBit/s
Quality : High
Add ID3 tag : No
Command line compressor : C:Program Files (x86)Exact Audio CopyFlacflac.exe
Additional command line options : -V -8 -T "Date=%year%" -T "Genre=%genre%" %source%


TOC of the extracted CD

Track | Start | Length | Start sector | End sector
---------------------------------------------------------
1 | 0:00.00 | 4:11.05 | 0 | 18829
2 | 4:11.05 | 4:04.02 | 18830 | 37131
3 | 8:15.07 | 3:34.45 | 37132 | 53226
4 | 11:49.52 | 3:55.00 | 53227 | 70851
5 | 15:44.52 | 3:59.13 | 70852 | 88789
6 | 19:43.65 | 3:32.05 | 88790 | 104694
7 | 23:15.70 | 4:16.05 | 104695 | 123899
8 | 27:32.00 | 3:59.60 | 123900 | 141884
9 | 31:31.60 | 4:10.67 | 141885 | 160701
10 | 35:42.52 | 1:33.00 | 160702 | 167676


Range status and errors

Selected range

Filename C:UsersОлегDesktopChet Atkins - Stay Tuned.wav

Peak level 100.0 %
Extraction speed 1.8 X
Range quality 99.9 %
Test CRC EE8E3A95
Copy CRC EE8E3A95
Copy OK

No errors occurred


AccurateRip summary

Track 1 accurately ripped (confidence 2) [8B708E01] (AR v2)
Track 2 accurately ripped (confidence 3) [FA2101F6] (AR v2)
Track 3 accurately ripped (confidence 3) [7B4423C5] (AR v2)
Track 4 accurately ripped (confidence 3) [F0E08E05] (AR v2)
Track 5 accurately ripped (confidence 3) [50320D8B] (AR v2)
Track 6 accurately ripped (confidence 3) [C01BEB23] (AR v2)
Track 7 accurately ripped (confidence 3) [56857376] (AR v2)
Track 8 accurately ripped (confidence 3) [4B387C81] (AR v2)
Track 9 accurately ripped (confidence 3) [7E19ECFD] (AR v2)
Track 10 accurately ripped (confidence 3) [611BEE6F] (AR v2)

All tracks accurately ripped

End of status report

---- CUETools DB Plugin V2.1.4

[CTDB TOCID: _or6AltQiEuoKL1Ht2WYeoy5QiI-] found
Submit result: _or6AltQiEuoKL1Ht2WYeoy5QiI- has been confirmed
Track | CTDB Status
1 | (9/9) Accurately ripped
2 | (8/9) Accurately ripped
3 | (9/9) Accurately ripped
4 | (9/9) Accurately ripped
5 | (9/9) Accurately ripped
6 | (9/9) Accurately ripped
7 | (9/9) Accurately ripped
8 | (9/9) Accurately ripped
9 | (9/9) Accurately ripped
10 | (9/9) Accurately ripped


==== Log checksum F35FE957232B961D0CE87778A64E0BEE7CF74AA9CDC568439D5A74709263CB3E ====

foobar2000 1.2 / Dynamic Range Meter 1.1.1
log date: 2015-02-06 01:48:01

--------------------------------------------------------------------------------
Analyzed: Chet Atkins / Stay Tuned
--------------------------------------------------------------------------------

DR Peak RMS Duration Track
--------------------------------------------------------------------------------
DR15 -0.95 dB -20.91 dB 4:11 01-Sunrise
DR15 0.00 dB -17.31 dB 4:04 02-Please Stay Tuned
DR16 0.00 dB -20.32 dB 3:35 03-Quiet Eyes
DR16 0.00 dB -18.49 dB 3:55 04-A Mouse in the House
DR16 0.00 dB -18.62 dB 3:59 05-Some Leather and Lace
DR15 -1.86 dB -18.87 dB 3:32 06-The Cricket Ballet
DR15 -0.99 dB -19.93 dB 4:16 07-Cosmic Square Dance
DR15 -0.63 dB -18.17 dB 4:00 08-The Boot and the Stone
DR14 -1.90 dB -19.00 dB 4:11 09-Tap Room
DR12 -9.31 dB -25.67 dB 1:33 10-If I Should Lose You
--------------------------------------------------------------------------------

Number of tracks: 10
Official DR value: DR15

Samplerate: 44100 Hz
Channels: 2
Bits per sample: 16
Bitrate: 725 kbps
Codec: FLAC
================================================================================



All thanks to original releaser - Alex Fal











Password: designol