16 Bit - Inaxycvgtgb (1987)


16 Bit - Inaxycvgtgb (1987)
EAC | APE | Image (Cue&Log) ~ 456 Mb (incl 5%) | Mp3 (CBR320) ~ 209 Mb (incl 5%) | Scans included
Genre: Electronic, Electro, Synthpop | Label: BMG Ariola | # 258 454 | Time: 01:14:03

Side project by Luca Anzilotti & Michael Munzing, which they started in 1986 and had a big success with their first single "Where Are You?". Sven Vath was only guest vocalist for "Where Are You?" and co-writer of the track "Too Fast To Live".



Tracklist:

01. Where Are You (04:13)
02. (Ina) Gadda-Da-Vida (Feat. Eddie Hind) (05:10)
03. Be Quit (04:18)
04. Mac's Flight (03:32)
05. Too Fast To Live (04:40)
06. Raindance (Feat. Eddie Hind) (04:49)
07. Changing Minds (04:26)
08. 1X1= Won (04:02)
09. Desire (Feat. Eddie Hind) (04:55)
10. 132 Beats 'xycvgtgb' (05:08)
11. Paris bei Nacht (02:44)
12. (Ina) Gadda-Da-Vida (Club Mix) (Feat. Eddie Hind) (09:09)
13. Death Of A Chip ('Der Mix') (04:13)
14. Raindance (Waltz Mix) (Feat. Eddie Hind) (06:01)
15. Be Quiet (Laser Edit) (06:37)


Exact Audio Copy V1.0 beta 3 from 29. August 2011

Отчёт EAC об извлечении, выполненном 2. января 2012, 17:41

16 Bit / Inaxycvgtgb

Дисковод: PLEXTOR CD-R PREMIUM2 Adapter: 0 ID: 0

Режим чтения : Достоверность
Использование точного потока : Да
Отключение кэша аудио : Да
Использование указателей C2 : Нет

Коррекция смещения при чтении : 30
Способность читать области Lead-in и Lead-out : Нет
Заполнение пропущенных сэмплов тишиной : Да
Удаление блоков с тишиной в начале и конце : Нет
При вычислениях CRC использовались нулевые сэмплы : Да
Интерфейс : Встроенный Win32-интерфейс для Win NT/2000

Выходной формат : Внутренние WAV-операции
Формат сэмплов : 44.100 Гц; 16 бит; стерео


TOC извлечённого CD

Трек | Старт | Длительность | Начальный сектор | Конечный сектор
---------------------------------------------------------------------
1 | 0:00.00 | 4:13.00 | 0 | 18974
2 | 4:13.00 | 5:10.00 | 18975 | 42224
3 | 9:23.00 | 4:18.57 | 42225 | 61631
4 | 13:41.57 | 3:32.13 | 61632 | 77544
5 | 17:13.70 | 4:40.05 | 77545 | 98549
6 | 21:54.00 | 4:49.45 | 98550 | 120269
7 | 26:43.45 | 4:26.05 | 120270 | 140224
8 | 31:09.50 | 4:03.00 | 140225 | 158449
9 | 35:12.50 | 4:55.67 | 158450 | 180641
10 | 40:08.42 | 5:08.33 | 180642 | 203774
11 | 45:17.00 | 2:44.00 | 203775 | 216074
12 | 48:01.00 | 9:09.57 | 216075 | 257306
13 | 57:10.57 | 4:13.68 | 257307 | 276349
14 | 61:24.50 | 6:01.00 | 276350 | 303424
15 | 67:25.50 | 6:37.00 | 303425 | 333199


Характеристики диапазона извлечения и сообщения об ошибках

Выбранный диапазон

Имя файла F:16 Bit16 Bit - Inaxycvgtgb.wav

Пиковый уровень 88.6 %
Скорость извлечения 5.6 X
Качество диапазона 100.0 %
CRC теста EB8A4C6D
CRC копии EB8A4C6D
Копирование... OK

Ошибок не произошло


AccurateRip: сводка

Трек 1 : извлечено точно (доверие 19) [974412EA] (AR v1)
Трек 2 : извлечено точно (доверие 19) [4608F28F] (AR v1)
Трек 3 : извлечено точно (доверие 19) [082E8B68] (AR v1)
Трек 4 : извлечено точно (доверие 19) [16A455F9] (AR v1)
Трек 5 : извлечено точно (доверие 19) [A8E79B90] (AR v1)
Трек 6 : извлечено точно (доверие 20) [4B50B1E6] (AR v1)
Трек 7 : извлечено точно (доверие 18) [6A9CEC8A] (AR v1)
Трек 8 : извлечено точно (доверие 19) [C56B2BC7] (AR v1)
Трек 9 : извлечено точно (доверие 19) [5F7913E9] (AR v1)
Трек 10 : извлечено точно (доверие 18) [EDD536B2] (AR v1)
Трек 11 : извлечено точно (доверие 19) [05734865] (AR v1)
Трек 12 : извлечено точно (доверие 18) [176A90E5] (AR v1)
Трек 13 : извлечено точно (доверие 19) [2ABC1F24] (AR v1)
Трек 14 : извлечено точно (доверие 18) [5CDB8B72] (AR v1)
Трек 15 : извлечено точно (доверие 18) [07F3D51F] (AR v1)

Все треки извлечены точно

Конец отчёта

foobar2000 1.2 / Dynamic Range Meter 1.1.1
log date: 2015-02-06 23:58:17

--------------------------------------------------------------------------------
Analyzed: 16 Bit / Inaxycvgtgb
--------------------------------------------------------------------------------

DR Peak RMS Duration Track
--------------------------------------------------------------------------------
DR12 -1.99 dB -16.59 dB 4:13 01-Where Are You
DR14 -1.05 dB -17.16 dB 5:10 02-(Ina) Gadda-Da-Vida (Feat. Eddie Hind)
DR12 -2.42 dB -16.97 dB 4:19 03-Be Quit
DR13 -2.79 dB -18.80 dB 3:32 04-Mac's Flight
DR13 -1.39 dB -16.09 dB 4:40 05-Too Fast To Live
DR13 -3.37 dB -20.00 dB 4:50 06-Raindance (Feat. Eddie Hind)
DR13 -1.71 dB -17.39 dB 4:26 07-Changing Minds
DR14 -2.49 dB -18.82 dB 4:03 08-1X1= Won
DR13 -2.74 dB -17.54 dB 4:56 09-Desire (Feat. Eddie Hind)
DR15 -1.06 dB -17.30 dB 5:08 10-132 Beats 'xycvgtgb'
DR15 -6.65 dB -23.96 dB 2:44 11-Paris bei Nacht
DR14 -1.69 dB -16.21 dB 9:10 12-(Ina) Gadda-Da-Vida (Club Mix) (Feat. Eddie Hind)
DR13 -6.18 dB -22.18 dB 4:14 13-Death Of A Chip ('Der Mix')
DR13 -2.38 dB -18.64 dB 6:01 14-Raindance (Waltz Mix) (Feat. Eddie Hind)
DR12 -2.54 dB -16.94 dB 6:37 15-Be Quiet (Laser Edit)
--------------------------------------------------------------------------------

Number of tracks: 15
Official DR value: DR13

Samplerate: 44100 Hz
Channels: 2
Bits per sample: 16
Bitrate: 765 kbps
Codec: Monkey's Audio
================================================================================



All thanks to original releaser - Polydor





Password: designol