Вход в свой аккаунт

Или войдите через соц. сети

Niacin - Deep (2000)


Niacin - Deep (2000)
EAC | FLAC | Image (Cue&Log) ~ 532 Mb (incl 5%) | Mp3 (CBR320) ~ 212 Mb (incl 5%) | Scans included
Genre: Fusion, Jazz Rock | Label: Magna Carta | # MA 9048-2 | Time: 01:05:37

“ This 2000 release although not as good as their latest release "Time Crunch" it comes in a close second.

"Deep" contains many rock, blues, jazz-fusioned flavored tracks. They do a cover of Van Halen's "Mean Streets" with bassist Billy Sheehan wailing out an unbelievable bass groove. They also get help from Toto veteran and guitar legend Steve Lukather and smoking vocals by Glenn Hughes on "Things Ain't Like They Used To Be" one of the many highlights on the disc.

With the trademark keyboards of John Novello and drum veteran Dennis Chambers this is a must have for fusions fans out there. Get it!

Review by D. L. Worthing, Amazon.com
”


“ The third studio album from this fusion power trio packs a two-fisted wallop and takes no prisoners. Billy Sheehan's bass solos on "Panic Button" and "Sugar Blues" are highlights, but, in truth, much of the record is practically a bass solo. His sound is crushing -- not unlike the fat tone Chris Squire used to get in the early days of Yes, but pumped up with even more gain. John Novello wrings astonishing sounds out of the Hammond B-3 organ, and drummer Dennis Chambers gives every track enough rhythmic juice to power a small country. The instrumental cover of Van Halen's "Mean Streets" verges on silly, however. "Things Ain't Like They Used to Be" (not to be confused with the similarly titled Duke Ellington tune) isn't much of a song, and Glenn Hughes' guest vocal is overblown, but guitar ace Steve Lukather contributes tasty licks and a hair-raising solo. Niacin's sound can get a little wearisome after a while, but if muscular, technically adept fusion is your thing, this is your band.

Review by David R. Adler, Allmusic.com
”







Tracklist:

01. Swing Swang Swung (03:48)
02. Best Laid Plans (04:25)
03. Sugar Blues (05:50)
04. Stompin' Ground (05:03)
05. Blue Mondo (05:56)
06. Panic Button (05:37)
07. Bootleg Jeans (07:00)
08. Mean Streets (05:37)
09. This One's Called... (03:46)
10. Klunkified (02:58)
11. Ratta McQue (03:48)
12. Things Ain't Like They Used To Be (07:25)
13. Bluesion (04:18)


Exact Audio Copy V1.0 beta 3 from 29. August 2011

EAC extraction logfile from 30. December 2012, 10:53

Niacin / Deep

Used drive : TSSTcorpCDDVDW SH-S203B Adapter: 2 ID: 0

Read mode : Secure
Utilize accurate stream : Yes
Defeat audio cache : Yes
Make use of C2 pointers : No

Read offset correction : 6
Overread into Lead-In and Lead-Out : No
Fill up missing offset samples with silence : Yes
Delete leading and trailing silent blocks : No
Null samples used in CRC calculations : Yes
Used interface : Native Win32 interface for Win NT & 2000

Used output format : Internal WAV Routines
Sample format : 44.100 Hz; 16 Bit; Stereo


TOC of the extracted CD

Track | Start | Length | Start sector | End sector
---------------------------------------------------------
1 | 0:00.00 | 3:48.12 | 0 | 17111
2 | 3:48.12 | 4:25.48 | 17112 | 37034
3 | 8:13.60 | 5:50.60 | 37035 | 63344
4 | 14:04.45 | 5:03.12 | 63345 | 86081
5 | 19:07.57 | 5:56.15 | 86082 | 112796
6 | 25:03.72 | 5:37.38 | 112797 | 138109
7 | 30:41.35 | 7:00.57 | 138110 | 169666
8 | 37:42.17 | 5:37.63 | 169667 | 195004
9 | 43:20.05 | 3:46.15 | 195005 | 211969
10 | 47:06.20 | 2:58.72 | 211970 | 225391
11 | 50:05.17 | 3:48.40 | 225392 | 242531
12 | 53:53.57 | 7:25.05 | 242532 | 275911
13 | 61:18.62 | 4:18.43 | 275912 | 295304


Range status and errors

Selected range

Filename E:unclesandyNiacin - Deep.wav

Peak level 96.6 %
Extraction speed 4.4 X
Range quality 100.0 %
Test CRC 878B36AE
Copy CRC 878B36AE
Copy OK

No errors occurred


AccurateRip summary

Track 1 accurately ripped (confidence 4) [34F1410C] (AR v2)
Track 2 accurately ripped (confidence 4) [178E4A2D] (AR v2)
Track 3 accurately ripped (confidence 4) [E1B7BAAE] (AR v2)
Track 4 accurately ripped (confidence 4) [F372344C] (AR v2)
Track 5 accurately ripped (confidence 4) [3E223EAC] (AR v2)
Track 6 accurately ripped (confidence 4) [2E5C8D4D] (AR v2)
Track 7 accurately ripped (confidence 4) [B803B1FC] (AR v2)
Track 8 accurately ripped (confidence 4) [1E1EEE3A] (AR v2)
Track 9 accurately ripped (confidence 4) [CAC8EA28] (AR v2)
Track 10 accurately ripped (confidence 4) [C3478B32] (AR v2)
Track 11 accurately ripped (confidence 4) [389FEE64] (AR v2)
Track 12 accurately ripped (confidence 4) [0208F5B6] (AR v2)
Track 13 accurately ripped (confidence 4) [68F88385] (AR v2)

All tracks accurately ripped

End of status report

==== Log checksum 058CB7A6F8ED31BBB88E9D74BDEE8962483F6E652CC600ED76EF79ADE7554A32 ====

foobar2000 1.1.5 / Dynamic Range Meter 1.1.1
log date: 2012-12-30 15:40:33

--------------------------------------------------------------------------------
Analyzed: Niacin / Deep
--------------------------------------------------------------------------------

DR Peak RMS Duration Track
--------------------------------------------------------------------------------
DR7 -0.30 dB -7.85 dB 3:48 01-Swing Swang Swung
DR7 -0.30 dB -9.15 dB 4:26 02-Best Laid Plans
DR8 -0.30 dB -10.05 dB 5:51 03-Sugar Blues
DR8 -0.30 dB -9.33 dB 5:03 04-Stompin' Ground
DR7 -0.31 dB -9.67 dB 5:56 05-Blue Mondo
DR7 -0.30 dB -8.49 dB 5:38 06-Panic Button
DR7 -0.30 dB -8.28 dB 7:01 07-Bootleg Jeans
DR7 -0.30 dB -9.45 dB 5:38 08-Mean Streets
DR7 -0.30 dB -8.25 dB 3:46 09-This One's Called...
DR8 -0.30 dB -9.14 dB 2:59 10-Klunkified
DR7 -0.30 dB -8.93 dB 3:49 11-Ratta McQue
DR7 -0.30 dB -9.35 dB 7:25 12-Things Ain't Like They Used To Be
DR7 -0.30 dB -8.59 dB 4:19 13-Bluesion
--------------------------------------------------------------------------------

Number of tracks: 13
Official DR value: DR7

Samplerate: 44100 Hz
Channels: 2
Bits per sample: 16
Bitrate: 971 kbps
Codec: FLAC
================================================================================



All thanks to original releaser - unclesandy











Password: designol