Jimmy Smith - Blue Note Jazz Inspiration (2012)


Jimmy Smith - Blue Note Jazz Inspiration (2012)
EAC | FLAC | Image (Cue&Log) ~ 515 Mb (incl 5%) | Mp3 (CBR320) ~ 187 Mb (incl 5%) | Scans included
Genre: Hard Bop, Jazz-Funk, Soul Jazz, Mainstream Jazz | Label: EMI | # 50999 009010 2 4 | Time: 01:12:05

Jimmy Smith brought the Hammond organ into hard bop and jazz in the 1950s, and his piano-fast solo runs on the instrument have never been equaled. This warm set from Blue Note Records, the label where Smith built most of his impressive legacy, selects eight of his performances for the label, including a 20-minute (and ten second) version of "The Sermon," the bouncing "Back at the Chicken Shack," and a fun romp through "See See Rider," among other delights, making this a quick introduction to the peak creative era of this one-of-a-kind jazz artist's long career.

Review by Steve Leggett, Allmusic.com






Tracklist:

01. The Sermon (20:10)
02. Fungii Mama (04:53)
03. When Johnny Coms Marching Home (07:56)
04. Jumpin The Blues (05:26)
05. Back At The Chicken Shack (07:59)
06. The Champ (08:36)
07. All Day Long (10:29)
08. See See Rider (06:33)


Exact Audio Copy V0.99 prebeta 5 from 4. May 2009

Отчёт EAC об извлечении, выполненном 21. мая 2014, 17:09

Jimmy Smith / Jazz Inspiration

Дисковод: ASUS DRW-24F1ST a Adapter: 0 ID: 1

Режим чтения : Достоверность
Использование точного потока : Да
Отключение кэша аудио : Да
Использование указателей C2 : Нет

Коррекция смещения при чтении : 6
Способность читать области Lead-in и Lead-out : Нет
Заполнение пропущенных сэмплов тишиной : Да
Удаление блоков с тишиной в начале и конце : Нет
При вычислениях CRC использовались нулевые сэмплы : Да
Интерфейс : Встроенный Win32-интерфейс для Win NT/2000

Выходной формат : Пользовательский кодировщик
Выбранный битрейт : 768 kBit/s
Качество : Высокий
Добавление ID3-тэга : Нет
Утилита сжатия : D:5. Other1. ProgrammesExact Audio CopyFLACFLAC.EXE
Дополнительные параметры : -6 -V -T "ARTIST=%a" -T "TITLE=%t" -T "ALBUM=%g" -T "DATE=%y" -T "TRACKNUMBER=%n" -T "GENRE=%m" -T "COMMENT=%e" %s -o %d


TOC извлечённого CD

Трек | Старт | Длительность | Начальный сектор | Конечный сектор
---------------------------------------------------------------------
1 | 0:00.00 | 20:10.55 | 0 | 90804
2 | 20:10.55 | 4:53.22 | 90805 | 112801
3 | 25:04.02 | 7:56.36 | 112802 | 148537
4 | 33:00.38 | 5:26.07 | 148538 | 172994
5 | 38:26.45 | 7:59.45 | 172995 | 208964
6 | 46:26.15 | 8:36.39 | 208965 | 247703
7 | 55:02.54 | 10:29.48 | 247704 | 294926
8 | 65:32.27 | 6:33.10 | 294927 | 324411


Характеристики диапазона извлечения и сообщения об ошибках

Выбранный диапазон

Имя файла D:4. New MusicJimmy Smith-Jazz Inspiration (2012)Jimmy Smith - Jazz Inspiration.wav

Пиковый уровень 99.8 %
Качество диапазона 100.0 %
CRC теста E3E2088C
CRC копии E3E2088C
Копирование... OK

Ошибок не произошло


AccurateRip: сводка

Трек 1 точность не определена (достоверность 1) [65A993D9], AccurateRip вернул [6DEB31C8]
Трек 2 точность не определена (достоверность 1) [BC552C6A], AccurateRip вернул [2D0B8D5B]
Трек 3 точность не определена (достоверность 1) [998A768B], AccurateRip вернул [F8161CD3]
Трек 4 точность не определена (достоверность 1) [463DB464], AccurateRip вернул [6A5D7536]
Трек 5 точность не определена (достоверность 1) [0C2B8A57], AccurateRip вернул [70F621B1]
Трек 6 точность не определена (достоверность 1) [9DC5166B], AccurateRip вернул [E5421BEF]
Трек 7 точность не определена (достоверность 1) [B0385B7B], AccurateRip вернул [3953EEF5]
Трек 8 точность не определена (достоверность 1) [F21E3493], AccurateRip вернул [D4E28734]

Ни один трек не прошёл проверки на точность
В вашей базе может быть иной вариант штамповки диска

Конец отчёта

[CUETools log; Date: 09.02.2015 20:55:11; Version: 2.1.4]
[CTDB TOCID: fJBIs4vmAcl1l7.ToFv4IWWlkhE-] found.
Track | CTDB Status
1 | (2/2) Accurately ripped
2 | (2/2) Accurately ripped
3 | (2/2) Accurately ripped
4 | (2/2) Accurately ripped
5 | (2/2) Accurately ripped
6 | (2/2) Accurately ripped
7 | (2/2) Accurately ripped
8 | (2/2) Accurately ripped
[AccurateRip ID: 00186e7c-009c5762-6b10e508] found.
Track [ CRC | V2 ] Status
01 [65a993d9|6deb31c8] (1+1/2) Accurately ripped
02 [bc552c6a|2d0b8d5b] (1+1/2) Accurately ripped
03 [998a768b|f8161cd3] (1+1/2) Accurately ripped
04 [463db464|6a5d7536] (1+1/2) Accurately ripped
05 [0c2b8a57|70f621b1] (1+1/2) Accurately ripped
06 [9dc5166b|e5421bef] (1+1/2) Accurately ripped
07 [b0385b7b|3953eef5] (1+1/2) Accurately ripped
08 [f21e3493|d4e28734] (1+1/2) Accurately ripped

Track Peak [ CRC32 ] [W/O NULL] [ LOG ]
-- 99,8 [E3E2088C] [D5142292] CRC32
01 99,8 [A513D466] [E038505A]
02 99,8 [9B450A8F] [371B830A]
03 99,8 [EA40B845] [FBB14C5B]
04 94,2 [46F2CACA] [EBF7A09F]
05 94,2 [02BCBB6A] [53FF3BBB]
06 89,0 [CA6CA7FA] [0D7D01C8]
07 94,2 [C7465741] [DC0EF111]
08 99,8 [89D14218] [48154729]

foobar2000 1.2 / Dynamic Range Meter 1.1.1
log date: 2015-02-09 18:47:20

--------------------------------------------------------------------------------
Analyzed: Jimmy Smith / Jazz Inspiration
--------------------------------------------------------------------------------

DR Peak RMS Duration Track
--------------------------------------------------------------------------------
DR11 -0.01 dB -12.89 dB 20:11 01-The Sermon
DR12 -0.01 dB -14.66 dB 4:53 02-Fungii Mama
DR11 -0.01 dB -13.16 dB 7:56 03-When Johnny Coms Marching Home
DR10 -0.51 dB -13.64 dB 5:26 04-Jumpin The Blues
DR9 -0.51 dB -11.43 dB 8:00 05-Back At The Chicken Shack
DR10 -1.01 dB -12.41 dB 8:37 06-The Champ
DR9 -0.51 dB -11.34 dB 10:30 07-All Day Long
DR10 -0.01 dB -12.16 dB 6:33 08-See See Rider
--------------------------------------------------------------------------------

Number of tracks: 8
Official DR value: DR10

Samplerate: 44100 Hz
Channels: 2
Bits per sample: 16
Bitrate: 926 kbps
Codec: FLAC
================================================================================



All thanks to original releaser - lukya





Password: designol