Вход в свой аккаунт

Или войдите через соц. сети

Lee Everton - Inner Exile (2008, Victor Ent. # VICP-64192) [+3 Bonustracks]


Lee Everton - Inner Exile
EAC+LOG+CUE | FLAC: 376 MB | Full Artwork: 144 MB | 5% Recovery Info
Label/Cat#: Victor Ent. # VICP-64192 | Country/Year: Japan 2008
Genre: Reggae | Style: Reggae, Lovers Rock

MD5 [X] CUE [X] LOG [X] INFO TEXT [X] ARTWORK [X]

my rip [X] not my rip [ ]



Exact Audio Copy V1.0 beta 3 from 29. August 2011

EAC extraction logfile from 11. July 2013, 11:23

Lee Everton / Inner Exile

Used drive : PIONEER BD-RW BDR-206 Adapter: 0 ID: 2

Read mode : Secure
Utilize accurate stream : Yes
Defeat audio cache : Yes
Make use of C2 pointers : No

Read offset correction : 667
Overread into Lead-In and Lead-Out : No
Fill up missing offset samples with silence : Yes
Delete leading and trailing silent blocks : No
Null samples used in CRC calculations : Yes
Used interface : Native Win32 interface for Win NT & 2000

Used output format : User Defined Encoder
Selected bitrate : 1024 kBit/s
Quality : High
Add ID3 tag : Yes
Command line compressor : C:Program FilesFLACflac.exe
Additional command line options : -5 -T "Artist=%artist%" -T "Title=%title%" -T "Album=%albumtitle%" -T "Date=%year%" -T "Tracknumber=%tracknr%" -T "Genre=%genre%" %source% -o %dest%


TOC of the extracted CD

Track | Start | Length | Start sector | End sector
---------------------------------------------------------
1 | 0:00.00 | 3:17.25 | 0 | 14799
2 | 3:17.25 | 3:38.71 | 14800 | 31220
3 | 6:56.21 | 3:27.34 | 31221 | 46779
4 | 10:23.55 | 3:08.14 | 46780 | 60893
5 | 13:31.69 | 3:20.25 | 60894 | 75918
6 | 16:52.19 | 3:01.26 | 75919 | 89519
7 | 19:53.45 | 4:04.68 | 89520 | 107887
8 | 23:58.38 | 4:28.59 | 107888 | 128046
9 | 28:27.22 | 3:56.40 | 128047 | 145786
10 | 32:23.62 | 4:43.39 | 145787 | 167050
11 | 37:07.26 | 4:43.34 | 167051 | 188309
12 | 41:50.60 | 3:42.02 | 188310 | 204961
13 | 45:32.62 | 2:53.53 | 204962 | 217989
14 | 48:26.40 | 3:48.00 | 217990 | 235089
15 | 52:14.40 | 4:08.35 | 235090 | 253724
16 | 56:23.00 | 3:24.53 | 253725 | 269077
17 | 59:47.53 | 3:24.35 | 269078 | 284412
18 | 63:12.13 | 3:05.10 | 284413 | 298297
19 | 68:49.23 | 5:14.46 | 309698 | 333293


Range status and errors

Selected range

Filename F:=== VINYL RIPS ====== EAC===X FRESH RIPLee Everton - Inner Exile.wav

Peak level 98.8 %
Extraction speed 8.1 X
Range quality 100.0 %
Test CRC D64CA8CE
Copy CRC D64CA8CE
Copy OK

No errors occurred


AccurateRip summary

Track 1 not present in database
Track 2 not present in database
Track 3 not present in database
Track 4 not present in database
Track 5 not present in database
Track 6 not present in database
Track 7 not present in database
Track 8 not present in database
Track 9 not present in database
Track 10 not present in database
Track 11 not present in database
Track 12 not present in database
Track 13 not present in database
Track 14 not present in database
Track 15 not present in database
Track 16 not present in database
Track 17 not present in database
Track 18 not present in database

None of the tracks are present in the AccurateRip database

End of status report

---- CUETools DB Plugin V2.1.3

[CTDB TOCID: rEJMMgCTbDb7lgz.AUoyPcohW0s-] disk not present in database, Submit result: rEJMMgCTbDb7lgz.AUoyPcohW0s- has been uploaded


==== Log checksum DCECD96F3718D55FDA093DCF8C7F230A72F4E0C1D8B40C1D2C91682731A49CB4 ====

foobar2000 1.1.14a / Dynamic Range Meter 1.1.1
log date: 2013-07-16 22:25:17

--------------------------------------------------------------------------------
Analyzed: Lee Everton / Inner Exile
--------------------------------------------------------------------------------

DR Peak RMS Duration Track
--------------------------------------------------------------------------------
DR8 -0.10 dB -8.99 dB 3:17 01-I Feel Like Dancing
DR8 -0.10 dB -9.80 dB 3:39 02-You Ain't Good To Me Anymore
DR9 -0.10 dB -10.18 dB 3:27 03-Inner Exile
DR8 -0.10 dB -8.91 dB 3:08 04-King Vapor
DR8 -0.10 dB -8.87 dB 3:20 05-So Proud Of You
DR8 -0.10 dB -10.05 dB 3:01 06-Bring It On Home To Me
DR9 -0.10 dB -10.44 dB 4:05 07-Cold Wind Blow
DR7 -0.10 dB -8.69 dB 4:29 08-April
DR8 -0.10 dB -10.20 dB 3:57 09-Genova
DR8 -0.10 dB -9.65 dB 4:44 10-Won't Keep Knocking
DR9 -0.10 dB -9.80 dB 4:43 11-Comfort Me
DR9 -0.10 dB -10.28 dB 3:42 12-Down To The River
DR9 -0.10 dB -9.80 dB 2:54 13-I Ain't Got No Home
DR8 -0.10 dB -9.31 dB 3:48 14-Slingstyle Music
DR9 -0.10 dB -12.15 dB 4:08 15-Come Closer To Me
DR13 -0.10 dB -15.83 dB 3:25 16-Inner Exile (Acoustic Version)
DR9 -0.10 dB -10.91 dB 3:24 17-So Proud Of You (One Drop Remix)
DR8 -0.10 dB -9.61 dB 3:05 18-I Feel Like Dancing (One Drop Remix)
--------------------------------------------------------------------------------

Number of tracks: 18
Official DR value: DR9

Samplerate: 44100 Hz
Channels: 2
Bits per sample: 16
Bitrate: 794 kbps
Codec: FLAC
================================================================================



CD Info:

Lee Everton ‎– Inner Exile

Label: Victor
Catalog#: VICP-64192
Format: CD, Album, Digipak
Country: Japan
Released: 18 Feb 2008
Genre: Reggae
Style: Reggae, Lovers Rock

Tracklist:

1 I Feel Like Dancing
2 You Ain't Good To Me No More
3 Inner Exile
4 King Vapor
5 So Proud Of You
6 Bring It On Home To Me
7 Cold Wind Blow
8 April
9 Genova
10 Won't Keep Knocking
11 Comfort Me
12 Down To The River
13 I Ain't Got No Home
14 Slingstyle Music
15 Come Closer To Me
16 Inner Exile (Acoustic Version)
17 So Proud Of You (One Drop Remix)
18 I Feel Like Dancing (One Drop Remix)

Companies etc:

Manufactured By – Victor Entertainment, Inc.
Distributed By – Victor Entertainment, Inc.
Record Company – Victor Entertainment, Inc.
Phonographic Copyright (p) – Rootdown Records
Copyright (c) – Rootdown Records

Notes:

(P) & (C) 2008 Rootdown Records
(Y) & (X) Manufactured and distributed by Victor Entertainment, Inc.., Japan.

This japanese issue contains 3 bonus tracks (tracks: 16, 17, 18) not included on the european issue.

“ Review by François Couture

He's got the voice, he's got the groove, and he's got the laid-back attitude. He could be Jamaican; he could be an heir to Bob Marley's kingdom. Yet, he's actually from Zurich and Inner Exile is only his debut album. Lee Everton's brand of reggae is in direct continuity with Marley's. It seems he has all the details figured out, from the wah-wah rhythm guitar and electric piano to the velvety horn arrangements. However, Everton is not a copycat. This album features 15 songs, all four minutes and under. The jams so typical in reggae music have been evacuated to put the focus on the song material. Which makes Everton a reggae singer-songwriter. His voice is the album's main pole of attraction: soulful, sweet, and filled with reggae and Van Morrison-esque inflections. The lyrics, invariably about relationships and music, are a little in the light department, much closer to heavily-traveled blues themes (which bluesmen use as pretexts for passionate vocal delivery) than to Marley's humanist and political themes. However, that lightness befits Everton's voice and songwriting. Highlights include "You Ain't Good to Me No More," "Wont Keep Knocking," the very rootsy "Slingstyle Music" (Everton's musical manifesto), and a convincing cover of Sam Cooke's "Bring It On Home to Me." The only thing one could reproach to Inner Exile is its homogeneity, which can be seen as a lack of creativity, almost every song being cast from the same mold. Cut down to 40 minutes, Inner Exile would have been a slam-dunk. Clocking in at just under an hour, it gets a tad long, although Everton's up-close, natural, intimate vocal delivery will probably keep you hooked till the last song fades off. ~allmusicguide
”




________________

FILEPOST

| |



________________