Herbie Hancock - V.S.O.P. - Live Under the Sky (1979) 2CD Expanded Remastered Reissue 2004


Herbie Hancock - V.S.O.P. - Live Under the Sky (1979) 2CD Expanded Remastered Reissue 2004
EAC | FLAC | Image (Cue&Log) ~ 1 Gb (incl 5%) | Mp3 (CBR320) ~ 390 Mb (incl 5%) | Scans included
Genre: Hard Bop, Post-Bop, Modal Jazz | Label: Columbia/Legacy | # C2K 87165 | Time: 02:34:18

Herbie Hancock's V.S.O.P. project with his former bandmates from the Miles Davis Quintet -- Ron Carter, Wayne Shorter, Tony Williams -- and trumpeter Freddie Hubbard was a band that almost single-handedly tried to re-establish acoustic jazz in the United States. And though they made three recordings, all of which were favorably reviewed and heralded by true jazz fans, none of them sold very well, and the band could find few gigs in the United States. The 1978 tour of major cities was thought to be a triumph at the time, but the unit could find few gigs afterward, and so its various members all went back to their other projects. In 1979, they got the opportunity to tour Japan and jumped at the chance. Sony, Hancock's Japanese label, recorded the two evenings, and the first, which took place during a furious rainstorm, was broadcast live on national television! Live Under the Sky marks the first time that this album has been available in the United States in any form. The original album featured eight cuts, and was minus the set's opener, "Eye of the Hurricane." That has been remedied with the 2004 reissue, and in addition, Legacy, in its usual fine manner, has added as a bonus the entire second night concert on a second disc (with encores), making this a complete historical document of one of the most exciting jazz concerts of the late '70s, and a high-water mark in each of the participant's catalogs. The sound on these CDs is so stellar, listeners can even hear the rain as it pours from the sky. What is notable is that despite working in many different contexts during the '70s, these players took the "free bop" they developed with Davis and kept it close to their hearts. Freddie Hubbard is a muscular addition to this group, and on "Eye of the Hurricane" gets his initiation rite from Williams, who pushes him to the breaking point. Hubbard rises to an entirely new level of improvisational expression, and listeners witness the transition -- one has to wonder why this was left off the LP! All members of the unit are represented as composers. Williams' "Para Oriente" and "Pee Wee" are high points as is Hancock's "Domo" and Carter's moving "Tear Drop." Hubbard weighs in with the beautiful and spacy hard bop "One of Another Kind" as well. The second night's show was even more incendiary than the first, and the band took to the rafters with its intensity, laying an identical set. This is enigmatic, fiery jazz that is full of surprises, elegance, attitude, and brilliant chops. Highly recommended.

Review by Thom Jurek, Allmusic.com









Tracklist:

CD1:

01. Opening (00:46)
02. Eye of the Hurricane (07:48)
03. Tear Drop (10:34)
04. Domo (12:35)
05. Para Oriente (07:28)
06. Pee Wee (08:12)
07. One of Another Kind (20:48)
08. Fragile (09:40)

CD2:

01. Opening (00:23)
02. Eye of the Hurricane (11:25)
03. Tear Drop (09:13)
04. Domo (11:41)
05. Para Oriente (06:51)
06. Pee Wee (06:27)
07. One of Another Kind (14:45)
08. Fragile (08:32)
09. Stella By Starlight (04:45)
10. On Green Dolphin Street (02:17)


Exact Audio Copy V1.0 beta 3 from 29. August 2011

Отчёт EAC об извлечении, выполненном 11. октября 2013, 21:54

Herbie Hancock / VSOP - Live Under the Sky CD 1

Дисковод: HL-DT-STBDDVDRW CH10LS20 Adapter: 2 ID: 1

Режим чтения : Достоверность
Использование точного потока : Да
Отключение кэша аудио : Да
Использование указателей C2 : Нет

Коррекция смещения при чтении : 667
Способность читать области Lead-in и Lead-out : Нет
Заполнение пропущенных сэмплов тишиной : Да
Удаление блоков с тишиной в начале и конце : Нет
При вычислениях CRC использовались нулевые сэмплы : Да
Интерфейс : Встроенный Win32-интерфейс для Win NT/2000

Выходной формат : Пользовательский кодировщик
Выбранный битрейт : 128 kBit/s
Качество : Высокий
Добавление ID3-тега : Нет
Утилита сжатия : C:Program FilesExact Audio CopyFLACFLAC.EXE
Дополнительные параметры : -V -8 -T "Date=%year%" -T "Genre=%genre%" %source%


TOC извлечённого CD

Трек | Старт | Длительность | Начальный сектор | Конечный сектор
---------------------------------------------------------------------
1 | 0:00.00 | 0:46.67 | 0 | 3516
2 | 0:46.67 | 7:48.15 | 3517 | 38631
3 | 8:35.07 | 10:34.30 | 38632 | 86211
4 | 19:09.37 | 12:35.13 | 86212 | 142849
5 | 31:44.50 | 7:28.22 | 142850 | 176471
6 | 39:12.72 | 8:12.68 | 176472 | 213439
7 | 47:25.65 | 20:48.37 | 213440 | 307076
8 | 68:14.27 | 9:40.48 | 307077 | 350624


Характеристики диапазона извлечения и сообщения об ошибках

Выбранный диапазон

Имя файла D:DLHerbie Hancock - VSOP - Live Under the SkyCD 1Herbie Hancock - VSOP - Live Under the Sky CD 1.wav

Пиковый уровень 99.9 %
Скорость извлечения 2.2 X
Качество диапазона 100.0 %
CRC теста 82B8F868
CRC копии 82B8F868
Копирование... OK

Ошибок не произошло


AccurateRip: сводка

Трек 1 : извлечено точно (доверие 4) [D1F7EB57] (AR v2)
Трек 2 : извлечено точно (доверие 4) [24D7D29E] (AR v2)
Трек 3 : извлечено точно (доверие 4) [ED80492F] (AR v2)
Трек 4 : извлечено точно (доверие 4) [6947FCEC] (AR v2)
Трек 5 : извлечено точно (доверие 4) [79F5581B] (AR v2)
Трек 6 : извлечено точно (доверие 4) [9CB93593] (AR v2)
Трек 7 : извлечено точно (доверие 4) [B2A57B59] (AR v2)
Трек 8 : извлечено точно (доверие 4) [3BC7588F] (AR v2)

Все треки извлечены точно

Конец отчёта

==== Контрольная сумма отчёта 41D9C3F9BC84D2B837CE750E0466E2F72083D4FC3BFB52490E75192FCFFA574D ====

foobar2000 1.2 / Dynamic Range Meter 1.1.1
log date: 2015-02-10 19:01:47

--------------------------------------------------------------------------------
Analyzed: Herbie Hancock / VSOP - Live Under the Sky CD 1
--------------------------------------------------------------------------------

DR Peak RMS Duration Track
--------------------------------------------------------------------------------
DR15 -0.01 dB -21.53 dB 0:47 01-Opening
DR10 -0.01 dB -12.40 dB 7:48 02-Eye of the Hurricane
DR16 -0.01 dB -20.79 dB 10:34 03-Tear Drop
DR10 -0.01 dB -12.86 dB 12:35 04-Domo
DR13 -0.01 dB -15.64 dB 7:28 05-Para Oriente
DR15 -0.01 dB -19.15 dB 8:13 06-Pee Wee
DR10 -0.01 dB -13.04 dB 20:48 07-One of Another Kind
DR11 -0.01 dB -14.64 dB 9:41 08-Fragile
--------------------------------------------------------------------------------

Number of tracks: 8
Official DR value: DR13

Samplerate: 44100 Hz
Channels: 2
Bits per sample: 16
Bitrate: 860 kbps
Codec: FLAC
================================================================================


Exact Audio Copy V1.0 beta 3 from 29. August 2011

Отчёт EAC об извлечении, выполненном 12. октября 2013, 1:35

Herbie Hancock / VSOP - Live Under the Sky CD 2

Дисковод: HL-DT-STBDDVDRW CH10LS20 Adapter: 2 ID: 1

Режим чтения : Достоверность
Использование точного потока : Да
Отключение кэша аудио : Да
Использование указателей C2 : Нет

Коррекция смещения при чтении : 667
Способность читать области Lead-in и Lead-out : Нет
Заполнение пропущенных сэмплов тишиной : Да
Удаление блоков с тишиной в начале и конце : Нет
При вычислениях CRC использовались нулевые сэмплы : Да
Интерфейс : Встроенный Win32-интерфейс для Win NT/2000

Выходной формат : Пользовательский кодировщик
Выбранный битрейт : 128 kBit/s
Качество : Высокий
Добавление ID3-тега : Нет
Утилита сжатия : C:Program FilesExact Audio CopyFLACFLAC.EXE
Дополнительные параметры : -V -8 -T "Date=%year%" -T "Genre=%genre%" %source%


TOC извлечённого CD

Трек | Старт | Длительность | Начальный сектор | Конечный сектор
---------------------------------------------------------------------
1 | 0:00.00 | 0:23.50 | 0 | 1774
2 | 0:23.50 | 11:25.67 | 1775 | 53216
3 | 11:49.42 | 9:13.23 | 53217 | 94714
4 | 21:02.65 | 11:41.42 | 94715 | 147331
5 | 32:44.32 | 6:51.00 | 147332 | 178156
6 | 39:35.32 | 6:27.18 | 178157 | 207199
7 | 46:02.50 | 14:45.00 | 207200 | 273574
8 | 60:47.50 | 8:32.00 | 273575 | 311974
9 | 69:19.50 | 4:45.72 | 311975 | 333421
10 | 74:05.47 | 2:17.23 | 333422 | 343719


Характеристики диапазона извлечения и сообщения об ошибках

Выбранный диапазон

Имя файла D:DLHerbie Hancock - VSOP - Live Under the SkyCD 2Herbie Hancock - VSOP - Live Under the Sky CD 2.wav

Пиковый уровень 99.9 %
Скорость извлечения 2.2 X
Качество диапазона 99.9 %
CRC теста 31FF6A7C
CRC копии 31FF6A7C
Копирование... OK

Ошибок не произошло


AccurateRip: сводка

Трек 1 точность не определена (достоверность 16) [1FA393D9], AccurateRip вернул [19F38446] (AR v2)
Трек 2 точность не определена (достоверность 16) [438AF7F4], AccurateRip вернул [A0DF137B] (AR v2)
Трек 3 точность не определена (достоверность 17) [777896CB], AccurateRip вернул [3BB3D156] (AR v2)
Трек 4 точность не определена (достоверность 17) [8FF39906], AccurateRip вернул [567C6FE4] (AR v2)
Трек 5 точность не определена (достоверность 17) [B0386C14], AccurateRip вернул [7E80FF20] (AR v2)
Трек 6 точность не определена (достоверность 17) [24684B6F], AccurateRip вернул [7E9A4F7D] (AR v2)
Трек 7 точность не определена (достоверность 17) [FBA75A48], AccurateRip вернул [20E0154F] (AR v2)
Трек 8 точность не определена (достоверность 17) [348A4213], AccurateRip вернул [FAE1A193] (AR v2)
Трек 9 точность не определена (достоверность 17) [11DBE07D], AccurateRip вернул [C1966619] (AR v2)
Трек 10 точность не определена (достоверность 17) [1F30649E], AccurateRip вернул [9D88AC96] (AR v2)

Ни один трек не прошёл проверки на точность
В вашей базе может быть иной вариант штамповки диска

Конец отчёта

==== Контрольная сумма отчёта 25C55E73BE09C73014F75EAC46285B3EAF7504FCD8363649368B2FD56AF0745C ====

foobar2000 1.2 / Dynamic Range Meter 1.1.1
log date: 2015-02-10 19:02:30

--------------------------------------------------------------------------------
Analyzed: Herbie Hancock / VSOP - Live Under the Sky CD 2
--------------------------------------------------------------------------------

DR Peak RMS Duration Track
--------------------------------------------------------------------------------
DR14 -4.81 dB -27.74 dB 0:24 01-Opening
DR8 -0.01 dB -10.73 dB 11:26 02-Eye of the Hurricane
DR14 -0.01 dB -18.39 dB 9:13 03-Tear Drop
DR10 -0.01 dB -11.51 dB 11:42 04-Domo
DR12 -0.01 dB -15.06 dB 6:51 05-Para Oriente
DR13 -0.01 dB -16.82 dB 6:27 06-Pee Wee
DR9 -0.01 dB -12.16 dB 14:45 07-One of Another Kind
DR9 -0.01 dB -12.56 dB 8:32 08-Fragile
DR16 -1.13 dB -21.15 dB 4:46 09-Stella By Starlight
DR13 -0.01 dB -19.35 dB 2:17 10-On Green Dolphin Street
--------------------------------------------------------------------------------

Number of tracks: 10
Official DR value: DR12

Samplerate: 44100 Hz
Channels: 2
Bits per sample: 16
Bitrate: 836 kbps
Codec: FLAC
================================================================================



All thanks to original releaser - strizh64





Password: designol