Вход в свой аккаунт

Или войдите через соц. сети

Rational Youth - Cold War Night Life (1982) Remastered Reissue 1997


Rational Youth - Cold War Night Life (1982) Remastered Reissue 1997
EAC | FLAC | Image (Cue&Log) ~ 364 Mb (incl 5%) | Mp3 (CBR320) ~ 138 Mb (incl 5%) | Scans included
Genre: Synthpop, New Wave | Label: October | # OCT 043 | Time: 00:47:58

“ The long-overdue reissue of a classic album. Initially released on an independent Montreal-based label, this album has been out of print for years, although it was one of the largest-selling independent releases in Canada. From beginning to end, this album is brilliant, with wonderful songs played with emotion on synthesizers. Danceable, melodic, futuristic (for its time), and overall, a treat.

"Close to Nature," "Saturdays in Silesia," and "Just a Sound In the Night," among others, are amazing songs, played expertly, and now on CD sounding as they were meant to be heard. Actually, there are no weak songs on the CD, and the whole package comes highly recommended. Added to the CD reissue is the inspirational "I Want To See the Light" and the dance floor classic "Coboloid Race." This album was alternative in its day and topped campus charts throughout North America, and listening to it in 1997, one can firmly understand the fascination. Tracey Howe, Bill Vorn and Kevin Komoda breathed life into what could otherwise be a very cold sound, and they did it well. It is good to have this album back.

Review by Aaron Badgley, Allmusic.com
”





Tracklist:

01. Close to Nature (04:40)
02. Beware the Fly (04:04)
03. Saturdays in Silesia (04:21)
04. Just a Sound in the Night (05:07)
05. Le Meilleur des Mondes (03:14)
06. Ring the Bells (05:13)
07. City of Night (04:02)
08. Dancing on the Berlin Wall (04:34)
09. Power Zone (03:39)
10. I Want to See the Light (03:42)
11. Coboloid Race (05:18)


Exact Audio Copy V0.99 prebeta 5 from 4. May 2009

EAC extraction logfile from 8. December 2010, 18:35

Rational Youth / Cold War Night Life

Used drive : ASUS DRW-2014L1 Adapter: 0 ID: 0

Read mode : Secure
Utilize accurate stream : Yes
Defeat audio cache : Yes
Make use of C2 pointers : No

Read offset correction : 6
Overread into Lead-In and Lead-Out : No
Fill up missing offset samples with silence : Yes
Delete leading and trailing silent blocks : No
Null samples used in CRC calculations : Yes
Used interface : Native Win32 interface for Win NT & 2000

Used output format : User Defined Encoder
Selected bitrate : 1024 kBit/s
Quality : High
Add ID3 tag : No
Command line compressor : C:Program FilesExact Audio CopyFLACFLAC.EXE
Additional command line options : -8 -V -T "ARTIST=%a" -T "TITLE=%t" -T "ALBUM=%g" -T "DATE=%y" -T "TRACKNUMBER=%n" -T "GENRE=%m" -T "COMMENT=EAC FLAC -8" %s


TOC of the extracted CD

Track | Start | Length | Start sector | End sector
---------------------------------------------------------
1 | 0:00.30 | 4:40.46 | 30 | 21075
2 | 4:41.01 | 4:04.29 | 21076 | 39404
3 | 8:45.30 | 4:21.44 | 39405 | 59023
4 | 13:06.74 | 5:07.02 | 59024 | 82050
5 | 18:14.01 | 3:14.51 | 82051 | 96651
6 | 21:28.52 | 5:13.46 | 96652 | 120172
7 | 26:42.23 | 4:02.56 | 120173 | 138378
8 | 30:45.04 | 4:34.28 | 138379 | 158956
9 | 35:19.32 | 3:39.17 | 158957 | 175398
10 | 38:58.49 | 3:42.20 | 175399 | 192068
11 | 42:40.69 | 5:18.33 | 192069 | 215951


Range status and errors

Selected range

Filename C:Rational Youth - Cold War Night Life (1982) [FLAC] {October OCT 043}Rational Youth - Cold War Night Life.wav

Peak level 99.0 %
Range quality 99.9 %
Test CRC 4E0F9FA8
Copy CRC 4E0F9FA8
Copy OK

No errors occurred


AccurateRip summary

Track 1 accurately ripped (confidence 1) [5DFFF74E]
Track 2 accurately ripped (confidence 1) [C0D4D5B1]
Track 3 accurately ripped (confidence 1) [F98CE1A1]
Track 4 accurately ripped (confidence 1) [BBFAE833]
Track 5 accurately ripped (confidence 1) [54C17080]
Track 6 accurately ripped (confidence 1) [40AFCB90]
Track 7 accurately ripped (confidence 1) [C064A64A]
Track 8 accurately ripped (confidence 1) [3D597A6E]
Track 9 accurately ripped (confidence 1) [1892F653]
Track 10 accurately ripped (confidence 1) [4F926E41]
Track 11 accurately ripped (confidence 1) [6149C856]

All tracks accurately ripped

End of status report

foobar2000 1.2 / Dynamic Range Meter 1.1.1
log date: 2015-02-11 14:42:12

--------------------------------------------------------------------------------
Analyzed: Rational Youth / Cold War Night Life
--------------------------------------------------------------------------------

DR Peak RMS Duration Track
--------------------------------------------------------------------------------
DR9 -0.08 dB -10.68 dB 4:41 01-Close to Nature
DR8 -0.08 dB -8.91 dB 4:04 02-Beware the Fly
DR9 -0.08 dB -10.20 dB 4:22 03-Saturdays in Silesia
DR9 -0.08 dB -10.64 dB 5:07 04-Just a Sound in the Night
DR10 -0.08 dB -11.12 dB 3:15 05-Le Meilleur des Mondes
DR9 -0.08 dB -9.90 dB 5:14 06-Ring the Bells
DR9 -0.08 dB -10.59 dB 4:03 07-City of Night
DR9 -0.08 dB -10.45 dB 4:34 08-Dancing on the Berlin Wall
DR7 -0.08 dB -8.50 dB 3:39 09-Power Zone
DR9 -0.30 dB -10.92 dB 3:42 10-I Want to See the Light
DR9 -0.17 dB -9.98 dB 5:18 11-Coboloid Race
--------------------------------------------------------------------------------

Number of tracks: 11
Official DR value: DR9

Samplerate: 44100 Hz
Channels: 2
Bits per sample: 16
Bitrate: 949 kbps
Codec: FLAC
================================================================================



All thanks to original releaser - dkmusik





Password: designol