Вход в свой аккаунт

Или войдите через соц. сети

Chet Atkins, C.G.P. - Read My Licks (1994)


Chet Atkins, C.G.P. - Read My Licks (1994)
EAC | FLAC | Image (Cue&Log) ~ 255 Mb (incl 5%) | Mp3 (CBR320) ~ 117 Mb (incl 5%) | Scans included
Genre: Country Pop, Instrumental Country, Finger-Picked Guitar | Label: Columbia | # CK 53756 | Time: 00:42:34

“ David Hungate and Chet again co-produce with a number of guest musicians. Suzy Bogguss contributes a lead vocal on "After You've Gone". She and Chet released a duet album the same year. Steve Wariner joins Chet in a vocal as well as guitar duet on "Read My Licks". At the Grammy Awards of 1994, "Young Thing" won the Grammy Award for Best Country Instrumental Performance. ”


“ Now, I'm not really that versed in Chet Atkins lore, but I know for a fact that he's one of the best, if not the best, country guitarist to ever come down the pike. And this album is a great collection of some of his best. With special guests like Dire Strait's Mark Knopfler, it's an amazing collection of great guitar work. Finally, the entire album is worth the price meerly for the amazing instrumental version of Don Mclean's classic Vincent.

Review by Grace H. Leonard, Amazon.com
”







Tracklist:

01. Young Thing (03:14)
02. Mountains of Illinois (04:10)
03. After You've Gone (03:31)
04. Every Now and Then (03:02)
05. Somebody Loves Me Now (04:08)
06. Norway (03:43)
07. Read My Licks (04:35)
08. Take a Look at Her Now (03:56)
09. Around the Bend (03:44)
10. Dream (04:36)
11. Vincent (03:48)


Exact Audio Copy V1.0 beta 4 from 7. December 2014

EAC extraction logfile from 11. February 2015, 14:37

Chet Atkins / Read My Licks

Used drive : ASUS SDRW-08D1S-U Adapter: 1 ID: 1

Read mode : Secure
Utilize accurate stream : Yes
Defeat audio cache : Yes
Make use of C2 pointers : No

Read offset correction : 667
Overread into Lead-In and Lead-Out : No
Fill up missing offset samples with silence : Yes
Delete leading and trailing silent blocks : No
Null samples used in CRC calculations : Yes
Used interface : Native Win32 interface for Win NT & 2000

Used output format : User Defined Encoder
Selected bitrate : 128 kBit/s
Quality : High
Add ID3 tag : No
Command line compressor : C:Program Files (x86)Exact Audio CopyFlacflac.exe
Additional command line options : -V -8 -T "Date=%year%" -T "Genre=%genre%" %source%


TOC of the extracted CD

Track | Start | Length | Start sector | End sector
---------------------------------------------------------
1 | 0:00.00 | 3:14.65 | 0 | 14614
2 | 3:14.65 | 4:10.35 | 14615 | 33399
3 | 7:25.25 | 3:31.40 | 33400 | 49264
4 | 10:56.65 | 3:02.62 | 49265 | 62976
5 | 13:59.52 | 4:08.08 | 62977 | 81584
6 | 18:07.60 | 3:43.50 | 81585 | 98359
7 | 21:51.35 | 4:35.30 | 98360 | 119014
8 | 26:26.65 | 3:56.72 | 119015 | 136786
9 | 30:23.62 | 3:44.55 | 136787 | 153641
10 | 34:08.42 | 4:36.60 | 153642 | 174401
11 | 38:45.27 | 3:48.38 | 174402 | 191539


Range status and errors

Selected range

Filename C:UsersОлегDesktopRead My LicksChet Atkins - Read My Licks.wav

Peak level 94.4 %
Extraction speed 1.9 X
Range quality 100.0 %
Test CRC E83B9EF6
Copy CRC E83B9EF6
Copy OK

No errors occurred


AccurateRip summary

Track 1 cannot be verified as accurate (confidence 12) [3771340C], AccurateRip returned [62040C6B] (AR v2)
Track 2 cannot be verified as accurate (confidence 12) [A61F9E5E], AccurateRip returned [B117AF8C] (AR v2)
Track 3 cannot be verified as accurate (confidence 12) [0A94A1E6], AccurateRip returned [2888053D] (AR v2)
Track 4 cannot be verified as accurate (confidence 11) [C08DEF79], AccurateRip returned [DE8D3A7A] (AR v2)
Track 5 cannot be verified as accurate (confidence 12) [F72CDC27], AccurateRip returned [55766195] (AR v2)
Track 6 cannot be verified as accurate (confidence 12) [8E83BD33], AccurateRip returned [83ADF8BF] (AR v2)
Track 7 cannot be verified as accurate (confidence 12) [94E662EB], AccurateRip returned [8BC45551] (AR v2)
Track 8 cannot be verified as accurate (confidence 12) [0CE1090F], AccurateRip returned [5928179C] (AR v2)
Track 9 cannot be verified as accurate (confidence 12) [4D9A6F14], AccurateRip returned [F8B6C8CD] (AR v2)
Track 10 cannot be verified as accurate (confidence 12) [2D56B122], AccurateRip returned [B5178A45] (AR v2)
Track 11 cannot be verified as accurate (confidence 10) [840E52DA], AccurateRip returned [E96DF746] (AR v2)

No tracks could be verified as accurate
You may have a different pressing from the one(s) in the database

End of status report

---- CUETools DB Plugin V2.1.4

[CTDB TOCID: B6FS2ENrNAvpwWURxxxDh6Hkfx0-] found
Submit result: B6FS2ENrNAvpwWURxxxDh6Hkfx0- has been confirmed
Track | CTDB Status
1 | (5/5) Accurately ripped
2 | (5/5) Accurately ripped
3 | (5/5) Accurately ripped
4 | (5/5) Accurately ripped
5 | (5/5) Accurately ripped
6 | (5/5) Accurately ripped
7 | (5/5) Accurately ripped
8 | (5/5) Accurately ripped
9 | (5/5) Accurately ripped
10 | (5/5) Accurately ripped
11 | (3/5) Accurately ripped, or (2/5) differs in 576 samples @03:48:26-03:48:27


==== Log checksum 92712E429BE1FFD88C7EEB2930E518BCDFA0F39776B613AD9823751A399716EC ====

foobar2000 1.2 / Dynamic Range Meter 1.1.1
log date: 2015-02-12 00:44:34

--------------------------------------------------------------------------------
Analyzed: Chet Atkins / Read My Licks
--------------------------------------------------------------------------------

DR Peak RMS Duration Track
--------------------------------------------------------------------------------
DR12 -1.15 dB -15.06 dB 3:15 01-Young Thing
DR10 -1.27 dB -14.59 dB 4:10 02-Mountains of Illinois
DR13 -0.50 dB -15.32 dB 3:32 03-After You've Gone
DR10 -1.55 dB -13.46 dB 3:03 04-Every Now and Then
DR9 -1.34 dB -13.70 dB 4:08 05-Somebody Loves Me Now
DR11 -1.19 dB -13.70 dB 3:44 06-Norway
DR11 -1.03 dB -13.64 dB 4:35 07-Read My Licks
DR9 -1.51 dB -12.33 dB 3:57 08-Take a Look at Her Now
DR12 -1.15 dB -14.39 dB 3:45 09-Around the Bend
DR14 -0.50 dB -18.42 dB 4:37 10-Dream
DR10 -11.60 dB -24.63 dB 3:49 11-Vincent
--------------------------------------------------------------------------------

Number of tracks: 11
Official DR value: DR11

Samplerate: 44100 Hz
Channels: 2
Bits per sample: 16
Bitrate: 753 kbps
Codec: FLAC
================================================================================



All thanks to original releaser - Alex Fal













Password: designol