Вход в свой аккаунт

Или войдите через соц. сети

Art Webb - Love Eyes (1977) [2009 Wounded Bird]


Art Webb - Love Eyes (1977) [2009 Wounded Bird]
EAC Rip | FLAC (Tracks) +CUE, LOG | 275 MB | Covers Included
R&B | Label: Wounded Bird | Catalog Number: WOU-8226

“ Flautist Art Webb performed and recorded with top artists through the heyday of jazz fusion and furthermore made his mark on the salsa scene. Mr. Flute and Love Yes were his only two solo albums, both recorded in 1977 with the contrasting production teams of Patrick Adams and Jerry Schoebaum/John Lee. Patrick brings a soulful disco flavour to the debut Mr. Flute and features a collaboration with the group Raices, while former Roy Ayers producer Jerry alongside John Lee (of John Lee & Gerry Brown) bring a sophisticated soul flavour to songs like Arts classic reading of You Cant Hide Love featuring the vocals of Tawatha ”


Exact Audio Copy V1.0 beta 3 from 29. August 2011

EAC extraction logfile from 18. February 2015, 9:54

Art Webb / Love Eyes

Used drive : ATAPI DVD A DH16A6L-C Adapter: 2 ID: 0

Read mode : Secure
Utilize accurate stream : Yes
Defeat audio cache : Yes
Make use of C2 pointers : No

Read offset correction : 6
Overread into Lead-In and Lead-Out : No
Fill up missing offset samples with silence : Yes
Delete leading and trailing silent blocks : No
Null samples used in CRC calculations : Yes
Used interface : Native Win32 interface for Win NT & 2000
Gap handling : Appended to previous track

Used output format : User Defined Encoder
Selected bitrate : 1024 kBit/s
Quality : High
Add ID3 tag : No
Command line compressor : C:Program FilesFLACflac.exe
Additional command line options : -8 -V -T "ARTIST=%artist%" -T "TITLE=%title%" -T "ALBUM=%albumtitle%" -T "DATE=%year%" -T "TRACKNUMBER=%tracknr%" -T "GENRE=%genre%" -T "PERFORMER=%albuminterpret%" -T "COMPOSER=%composer%" %haslyrics%--tag-from-file=LYRICS="%lyricsfile%"%haslyrics% -T "ALBUMARTIST=%albumartist%" -T "DISCNUMBER=%cdnumber%" -T "TOTALDISCS=%totalcds%" -T "TOTALTRACKS=%numtracks%" -T "COMMENT=%comment%" %source% -o %dest%


TOC of the extracted CD

Track | Start | Length | Start sector | End sector
---------------------------------------------------------
1 | 0:00.00 | 5:10.20 | 0 | 23269
2 | 5:10.20 | 4:06.50 | 23270 | 41769
3 | 9:16.70 | 5:34.47 | 41770 | 66866
4 | 14:51.42 | 4:11.33 | 66867 | 85724
5 | 19:03.00 | 5:40.54 | 85725 | 111278
6 | 24:43.54 | 5:15.74 | 111279 | 134977
7 | 29:59.53 | 5:07.39 | 134978 | 158041
8 | 35:07.17 | 2:11.47 | 158042 | 167913


Track 1

Filename F:0000Art Webb - Love Eyes1 - Love Eyes.wav

Pre-gap length 0:00:02.00

Peak level 97.2 %
Extraction speed 3.7 X
Track quality 100.0 %
Test CRC 84064FB9
Copy CRC 84064FB9
Accurately ripped (confidence 2) [0842FA23] (AR v2)
Copy OK

Track 2

Filename F:0000Art Webb - Love Eyes2 - You Can't Hide Love.wav

Peak level 97.2 %
Extraction speed 3.4 X
Track quality 99.9 %
Test CRC 94FA1B69
Copy CRC 94FA1B69
Accurately ripped (confidence 2) [56D2B6A4] (AR v2)
Copy OK

Track 3

Filename F:0000Art Webb - Love Eyes3 - Free.wav

Peak level 97.2 %
Extraction speed 4.0 X
Track quality 99.9 %
Test CRC 6780A093
Copy CRC 6780A093
Accurately ripped (confidence 2) [C6B26B38] (AR v2)
Copy OK

Track 4

Filename F:0000Art Webb - Love Eyes4 - Devotion.wav

Peak level 97.2 %
Extraction speed 4.9 X
Track quality 100.0 %
Test CRC 8BA0379D
Copy CRC 8BA0379D
Accurately ripped (confidence 2) [28F4B69C] (AR v2)
Copy OK

Track 5

Filename F:0000Art Webb - Love Eyes5 - Glass Dreams.wav

Peak level 97.2 %
Extraction speed 5.2 X
Track quality 100.0 %
Test CRC 6F641FF9
Copy CRC 6F641FF9
Accurately ripped (confidence 2) [DF643DDB] (AR v2)
Copy OK

Track 6

Filename F:0000Art Webb - Love Eyes6 - Pyramids.wav

Peak level 97.2 %
Extraction speed 5.7 X
Track quality 100.0 %
Test CRC E640F3EB
Copy CRC E640F3EB
Accurately ripped (confidence 2) [6860FC1F] (AR v2)
Copy OK

Track 7

Filename F:0000Art Webb - Love Eyes7 - Flute Magic.wav

Peak level 97.2 %
Extraction speed 6.0 X
Track quality 100.0 %
Test CRC 01AA1725
Copy CRC 01AA1725
Accurately ripped (confidence 2) [8FB59C4E] (AR v2)
Copy OK

Track 8

Filename F:0000Art Webb - Love Eyes8 - A Little Traveling Music-Please.wav

Peak level 97.2 %
Extraction speed 5.4 X
Track quality 100.0 %
Test CRC 78638F57
Copy CRC 78638F57
Accurately ripped (confidence 2) [36AF0F88] (AR v2)
Copy OK


All tracks accurately ripped

No errors occurred

End of status report

==== Log checksum C16A42566906A0E960CEF10FC1B1A19DC0AE233642F049D658EC3BBCDA48F4E5 ====


Tracklist:
01. Love Eyes (5:10)
02. You Can't Hide Love (4:06)
03. Free (5:34)
04. Devotion (4:11)
05. Glass Dreams (5:40)
06. Pyramids (5:15)
07. Flute Magic (5:07)
08. A Little Traveling Music-Please (2:11)