The Alan Broadbent Trio - Personal Standards (1997)


The Alan Broadbent Trio - Personal Standards (1997)
EAC | FLAC | Image (Cue&Log) ~ 342 Mb (incl 5%) | Mp3 (CBR320) ~ 167 Mb (incl 5%) | Scans included
Genre: Post-Bop, Piano Jazz | Label: Concord Jazz | # CCD-4757-2 | Time: 01:02:00

Since gaining fame as a member of Charlie Haden's excellent Quartet West, Alan Broadbent has seen his own catalog rise in stature. A welcome development, since a wider audience should check out the many fine recordings this unique pianist/composer/arranger has made. And in spite of the admission that his highly lyrical bent and soft touch come out of the work of Bill Evans, Red Garland, and Nat "King" Cole, among others, Broadbent is able to produce fresh solo conceptions and plenty of original material of his own. In fact, as the title implies, Personal Standards consists almost entirely of self-penned cuts, save for one by bassist Putter Smith. (This seamless piano trio is rounded out by drummer Joe LaBarbera.) Along with material also heard on various Quartet West recordings like "The Long Goodbye" and "Song of Home," the disc features a nice mix of ballads ("Ballad Impromptu"), mid- to up-tempo swingers ("Consolation"), as well as some blues ("Uncertain Terms"). And even though Broadbent favors slow and melancholy numbers, he can still vigorously turn on the technique, especially on the faster numbers here. In addition to his solo piano outing for the Maybeck Recital Hall series, Personal Standards offers a great introduction to Broadbent's work.

Review by Stephen Cook, Allmusic.com






Tracklist:

01. Consolation (07:05)
02. Ballad Impromptu (06:02)
03. The Long Goodbye (08:21)
04. Everytime I Think Of You (06:08)
05. Song Of Home (07:36)
06. North (07:32)
07. Chris Craft (06:41)
08. Idyll (06:22)
09. Uncertain Terms (06:09)


Exact Audio Copy V0.99 prebeta 5 from 4. May 2009

Отчёт EAC об извлечении, выполненном 28. апреля 2014, 17:51

Alan Broadbent / Personal Standards

Дисковод: ASUS DRW-24F1ST a Adapter: 0 ID: 1

Режим чтения : Достоверность
Использование точного потока : Да
Отключение кэша аудио : Да
Использование указателей C2 : Нет

Коррекция смещения при чтении : 6
Способность читать области Lead-in и Lead-out : Нет
Заполнение пропущенных сэмплов тишиной : Да
Удаление блоков с тишиной в начале и конце : Нет
При вычислениях CRC использовались нулевые сэмплы : Да
Интерфейс : Встроенный Win32-интерфейс для Win NT/2000

Выходной формат : Пользовательский кодировщик
Выбранный битрейт : 768 kBit/s
Качество : Высокий
Добавление ID3-тэга : Нет
Утилита сжатия : D:5. Other1. ProgrammesExact Audio CopyFLACFLAC.EXE
Дополнительные параметры : -6 -V -T "ARTIST=%a" -T "TITLE=%t" -T "ALBUM=%g" -T "DATE=%y" -T "TRACKNUMBER=%n" -T "GENRE=%m" -T "COMMENT=%e" %s -o %d


TOC извлечённого CD

Трек | Старт | Длительность | Начальный сектор | Конечный сектор
---------------------------------------------------------------------
1 | 0:00.00 | 7:05.67 | 0 | 31941
2 | 7:05.67 | 6:02.00 | 31942 | 59091
3 | 13:07.67 | 8:21.03 | 59092 | 96669
4 | 21:28.70 | 6:08.72 | 96670 | 124341
5 | 27:37.67 | 7:36.03 | 124342 | 158544
6 | 35:13.70 | 7:32.05 | 158545 | 192449
7 | 42:46.00 | 6:41.72 | 192450 | 222596
8 | 49:27.72 | 6:22.05 | 222597 | 251251
9 | 55:50.02 | 6:09.03 | 251252 | 278929


Характеристики диапазона извлечения и сообщения об ошибках

Выбранный диапазон

Имя файла D:The Alan Broadbent Trio - Personal Standards (1997)Alan Broadbent - Personal Standards.wav

Пиковый уровень 100.0 %
Качество диапазона 100.0 %
CRC теста 79B91C38
CRC копии 79B91C38
Копирование... OK

Ошибок не произошло


AccurateRip: сводка

Трек 1 точность не определена (достоверность 3) [8A48A956], AccurateRip вернул [AC6C5AD1]
Трек 2 точность не определена (достоверность 3) [4B002AEA], AccurateRip вернул [2184313B]
Трек 3 точность не определена (достоверность 3) [4C434B49], AccurateRip вернул [EC82F5D7]
Трек 4 точность не определена (достоверность 3) [7BC70235], AccurateRip вернул [08E954A8]
Трек 5 точность не определена (достоверность 3) [18F194D8], AccurateRip вернул [433FBE3F]
Трек 6 точность не определена (достоверность 3) [045FC30F], AccurateRip вернул [1D12B420]
Трек 7 точность не определена (достоверность 3) [A202162E], AccurateRip вернул [B1A2698E]
Трек 8 точность не определена (достоверность 3) [FD6D2EDF], AccurateRip вернул [5C883935]
Трек 9 точность не определена (достоверность 3) [B24A3A8D], AccurateRip вернул [6976F074]

Ни один трек не прошёл проверки на точность
В вашей базе может быть иной вариант штамповки диска

Конец отчёта

foobar2000 1.2 / Dynamic Range Meter 1.1.1
log date: 2015-02-20 16:40:27

--------------------------------------------------------------------------------
Analyzed: Alan Broadbent / Personal Standards
--------------------------------------------------------------------------------

DR Peak RMS Duration Track
--------------------------------------------------------------------------------
DR13 0.00 dB -16.32 dB 7:06 01-Consolation
DR13 -1.74 dB -18.48 dB 6:02 02-Ballad Impromptu
DR14 -0.33 dB -17.47 dB 8:21 03-The Long Goodbye
DR14 -0.02 dB -18.26 dB 6:09 04-Everytime I Think Of You
DR14 -0.02 dB -18.04 dB 7:36 05-Song Of Home
DR15 -0.01 dB -18.54 dB 7:32 06-North
DR13 0.00 dB -15.03 dB 6:42 07-Chris Craft
DR14 -0.86 dB -18.69 dB 6:22 08-Idyll
DR14 0.00 dB -16.28 dB 6:09 09-Uncertain Terms
--------------------------------------------------------------------------------

Number of tracks: 9
Official DR value: DR14

Samplerate: 44100 Hz
Channels: 2
Bits per sample: 16
Bitrate: 695 kbps
Codec: FLAC
================================================================================



All thanks to original releaser - lukya





Password: designol