Ralph Sutton Trio - The Second Set (2000)


Ralph Sutton Trio - The Second Set (2000)
EAC | FLAC | Image (Cue&Log) ~ 353 Mb (incl 5%) | Mp3 (CBR320) ~ 170 Mb (incl 5%) | Scans included
Genre: Stride, Standards, Piano Jazz | Label: Gaslight Records | # GSL-5002 | Time: 01:04:31

Ralph Sutton was one of the few living masters of stride piano by the time this night club engagement was recorded in St. Louis. This is the second volume of music recorded during his March, 1999, gig at the Backstage Bistro, but it is by no means inferior to the earlier Gaslight CD. Accompanied by two seasoned veterans, bassist Jack Lesberg and drummer Frank Capp, Sutton is in top form. One doesn't normally think of "Moonglow" as part of a stride pianist's repertoire, but Sutton's jaunty interpretation should prompt other practitioners to include it in their books. "Basin Street Blues" features a delightful call-and-response between the artist and Lesberg in its introduction before the leader takes over to work his magic with this jazz standard. The pianist also is featured on several delightful solos, including an alternate take of "Love Me" (a tune all but forgotten by most jazz musicians), a tantalizing performance of "Love Lies," a jubilant "Tea for Two," plus the added bonus of a private recording made in 1950, in a fan's home, of Sutton's romp through the boogie woogie classic "Honky Tonk Train Blues." Highly recommended!

Review by Ken Dryden, Allmusic.com





Tracklist:

01. Sleep (05:53)
02. Moonglow (05:22)
03. Basin Street Blues (05:38)
04. Perdido (05:24)
05. Love Me (02:04)
06. Alweys (06:15)
07. Love Lies (05:11)
08. Gone With The Wind (06:51)
09. Tea For Two (05:10)
10. Sweet & Lovely (06:33)
11. If Dreams Come True (07:31)
12. Honky Tink Trein Blues (02:33)


Exact Audio Copy V0.99 prebeta 5 from 4. May 2009

Отчёт EAC об извлечении, выполненном 8. октября 2014, 15:03

Ralpf Sutton / The Second Set

Дисковод: ASUS DRW-24F1ST a Adapter: 0 ID: 0

Режим чтения : Достоверность
Использование точного потока : Да
Отключение кэша аудио : Да
Использование указателей C2 : Нет

Коррекция смещения при чтении : 6
Способность читать области Lead-in и Lead-out : Нет
Заполнение пропущенных сэмплов тишиной : Да
Удаление блоков с тишиной в начале и конце : Нет
При вычислениях CRC использовались нулевые сэмплы : Да
Интерфейс : Встроенный Win32-интерфейс для Win NT/2000

Выходной формат : Пользовательский кодировщик
Выбранный битрейт : 768 kBit/s
Качество : Высокий
Добавление ID3-тэга : Нет
Утилита сжатия : D:5. Other1. ProgrammesExact Audio CopyFLACFLAC.EXE
Дополнительные параметры : -6 -V -T "ARTIST=%a" -T "TITLE=%t" -T "ALBUM=%g" -T "DATE=%y" -T "TRACKNUMBER=%n" -T "GENRE=%m" -T "COMMENT=%e" %s -o %d


TOC извлечённого CD

Трек | Старт | Длительность | Начальный сектор | Конечный сектор
---------------------------------------------------------------------
1 | 0:00.00 | 5:53.22 | 0 | 26496
2 | 5:53.22 | 5:23.00 | 26497 | 50721
3 | 11:16.22 | 5:38.08 | 50722 | 76079
4 | 16:54.30 | 5:24.05 | 76080 | 100384
5 | 22:18.35 | 2:04.40 | 100385 | 109724
6 | 24:23.00 | 6:15.47 | 109725 | 137896
7 | 30:38.47 | 5:11.33 | 137897 | 161254
8 | 35:50.05 | 6:51.72 | 161255 | 192151
9 | 42:42.02 | 5:10.18 | 192152 | 215419
10 | 47:52.20 | 6:33.35 | 215420 | 244929
11 | 54:25.55 | 7:31.42 | 244930 | 278796
12 | 61:57.22 | 2:33.33 | 278797 | 290304


Характеристики диапазона извлечения и сообщения об ошибках

Выбранный диапазон

Имя файла D:Ralph Sutton Trio - The Second Set (2000)Ralpf Sutton - The Second Set.wav

Пиковый уровень 100.0 %
Качество диапазона 100.0 %
CRC теста 8CE07382
CRC копии 8CE07382
Копирование... OK

Ошибок не произошло


AccurateRip: сводка

Трек 1 нет в базе данных
Трек 2 нет в базе данных
Трек 3 нет в базе данных
Трек 4 нет в базе данных
Трек 5 нет в базе данных
Трек 6 нет в базе данных
Трек 7 нет в базе данных
Трек 8 нет в базе данных
Трек 9 нет в базе данных
Трек 10 нет в базе данных
Трек 11 нет в базе данных
Трек 12 нет в базе данных

Ни одного трека нет в базе AccurateRip

Конец отчёта

foobar2000 1.2 / Dynamic Range Meter 1.1.1
log date: 2015-03-01 15:52:41

--------------------------------------------------------------------------------
Analyzed: Ralpf Sutton / The Second Set
--------------------------------------------------------------------------------

DR Peak RMS Duration Track
--------------------------------------------------------------------------------
DR13 -0.73 dB -16.78 dB 5:53 01-Sleep
DR10 -0.64 dB -14.36 dB 5:23 02-Moonglow
DR9 -0.33 dB -12.10 dB 5:38 03-Basin Street Blues
DR10 0.00 dB -13.21 dB 5:24 04-Perdido
DR12 -1.44 dB -16.34 dB 2:05 05-Love Me
DR12 -0.59 dB -16.87 dB 6:16 06-Alweys
DR14 -1.80 dB -20.51 dB 5:11 07-Love Lies
DR11 -1.44 dB -15.38 dB 6:52 08-Gone With The Wind
DR12 -1.02 dB -16.69 dB 5:10 09-Tea For Two
DR12 -0.48 dB -16.11 dB 6:33 10-Sweet & Lovely
DR10 0.00 dB -13.50 dB 7:32 11-If Dreams Come True
DR12 -2.16 dB -16.16 dB 2:33 12-Honky Tink Trein Blues
--------------------------------------------------------------------------------

Number of tracks: 12
Official DR value: DR12

Samplerate: 44100 Hz
Channels: 2
Bits per sample: 16
Bitrate: 699 kbps
Codec: FLAC
================================================================================



All thanks to original releaser - lukya





Password: designol