The Beach Boys - The Beach Boys' Christmas Album (1964) RESTORED


The Beach Boys' Christmas Album (1964)
WV+CUE+LOG or MP3 CBR 320 | 35:58 min | 198 or 82 MB
Re-Released on CD in 1992 / Capitol Records # C2-95084


While it may seem rather incongruous for the definitive voices of summertime to tackle the music of the holiday season, The Beach Boys' Christmas Album succeeds brilliantly; Brian Wilson's pop genius is well suited to classic Yuletide fare, and the group delivers lush performances of standards ranging from "Frosty the Snowman" to "White Christmas" as well as more contemporary material like "The Man With All the Toys" and "Blue Christmas." The Capitol reissue also includes four bonus tracks, including "The Lord's Prayer" and the single version of "Little Saint Nick".

~ Jason Ankeny, all media guide

Tracklist:

01. Little Saint Nick
02. The Man With All The Toys
03. Santa's Beard
04. Merry Christmas, Baby
05. Christmas Day
06. Frosty The Snowman
07. We Three Kings Of Orient Are
08. Blue Christmas
09. Santa Claus Is Comin' To Town
10. White Christmas
11. I'll Be Home For Christmas
12. Auld Lang Syne
13. Little Saint Nick (Single Version) #
14. The Lord's Prayer #
15. Little Saint Nick (Alternate Take) #
16. Auld Lang Syne (Alternate Take) #

# - Bonus tracks -
The Beach Boys' Christmas Album was first reissued on CD in 1992, with four bonus tracks: the single mix of "Little Saint Nick" (in mono and featuring additional instrumental overdubs not on the stereo album version), its B-side "The Lord's Prayer", and alternate takes of "Little Saint Nick" (utilizing the melody from the group's song "Drive-In") and "Auld Lang Syne".

Produced and arranged by Brian Wilson

• Mike Love
• Brian Wilson
• Carl Wilson
• Dennis Wilson
• Al Jardine

Exact Audio Copy V0.99 prebeta 4 from 23. January 2008

EAC extraction logfile from 14. December 2008, 0:33

The Beach Boys / Christmas Album

Used drive : PLEXTOR CD-R PREMIUM2 Adapter: 1 ID: 1

Read mode : Secure
Utilize accurate stream : Yes
Defeat audio cache : Yes
Make use of C2 pointers : No

Read offset correction : 30
Overread into Lead-In and Lead-Out : Yes
Fill up missing offset samples with silence : Yes
Delete leading and trailing silent blocks : No
Null samples used in CRC calculations : Yes
Used interface : Installed external ASPI interface

Used output format : Internal WAV Routines
Sample format : 44.100 Hz; 16 Bit; Stereo


TOC of the extracted CD

Track | Start | Length | Start sector | End sector
---------------------------------------------------------
1 | 0:00.00 | 2:02.67 | 0 | 9216
2 | 2:02.67 | 1:32.43 | 9217 | 16159
3 | 3:35.35 | 2:00.25 | 16160 | 25184
4 | 5:35.60 | 2:28.17 | 25185 | 36301
5 | 8:04.02 | 1:51.13 | 36302 | 44639
6 | 9:55.15 | 1:55.62 | 44640 | 53326
7 | 11:51.02 | 4:05.28 | 53327 | 71729
8 | 15:56.30 | 3:11.50 | 71730 | 86104
9 | 19:08.05 | 2:21.00 | 86105 | 96679
10 | 21:29.05 | 2:30.17 | 96680 | 107946
11 | 23:59.22 | 2:46.33 | 107947 | 120429
12 | 26:45.55 | 1:20.70 | 120430 | 126499
13 | 28:06.50 | 2:01.60 | 126500 | 135634
14 | 30:08.35 | 2:34.30 | 135635 | 147214
15 | 32:42.65 | 1:56.67 | 147215 | 155981
16 | 34:39.57 | 1:18.40 | 155982 | 161871


Range status and errors

Selected range

Filename C:200The Beach Boys' Christmas Album (1964, 1992 CD)The Beach Boys - Christmas Album.wav

Peak level 99.8 %
Range quality 100.0 %
Copy CRC 5781DC8B
Copy OK

No errors occurred


AccurateRip summary

Track 1 accurately ripped (confidence 20) [A60289E8]
Track 2 accurately ripped (confidence 19) [FCEE5991]
Track 3 accurately ripped (confidence 20) [1B7F137D]
Track 4 accurately ripped (confidence 20) [34839925]
Track 5 accurately ripped (confidence 20) [5847D189]
Track 6 accurately ripped (confidence 20) [65F1FCB0]
Track 7 accurately ripped (confidence 20) [F14B7AEF]
Track 8 accurately ripped (confidence 20) [C183E7FB]
Track 9 accurately ripped (confidence 20) [18165196]
Track 10 accurately ripped (confidence 20) [D1E0C3A8]
Track 11 accurately ripped (confidence 20) [E52B1579]
Track 12 accurately ripped (confidence 20) [E7BE1D05]
Track 13 accurately ripped (confidence 20) [EAC90440]
Track 14 accurately ripped (confidence 20) [F85CF67C]
Track 15 accurately ripped (confidence 20) [B678213F]
Track 16 accurately ripped (confidence 20) [15C2C3F0]

All tracks accurately ripped

End of status report


CUETools log; Date: 25.12.2011 10:38:06; Version: 2.1.2a
[AccurateRip ID: 001548ef-01027287-d4086e10] found.
Track [ CRC ] Status
01 [a60289e8] (8/8) Accurately ripped
02 [fcee5991] (6/6) Accurately ripped
03 [1b7f137d] (7/7) Accurately ripped
04 [34839925] (7/7) Accurately ripped
05 [5847d189] (7/7) Accurately ripped
06 [65f1fcb0] (7/7) Accurately ripped
07 [f14b7aef] (7/7) Accurately ripped
08 [c183e7fb] (7/7) Accurately ripped
09 [18165196] (7/7) Accurately ripped
10 [d1e0c3a8] (7/7) Accurately ripped
11 [e52b1579] (7/7) Accurately ripped
12 [e7be1d05] (7/7) Accurately ripped
13 [eac90440] (7/7) Accurately ripped
14 [f85cf67c] (7/7) Accurately ripped
15 [b678213f] (7/7) Accurately ripped
16 [15c2c3f0] (6/6) Accurately ripped

Track Peak [ CRC32 ] [W/O NULL]
-- 99,8 [5781DC8B] [37AE0E69]
01 99,8 [FA899A19] [125F2CD4]
02 92,5 [319E191B] [FBBA128A]
03 93,6 [663056C7] [00304C49]
04 84,5 [BD8D48B1] [F6BA83DF]
05 96,7 [B06183E6] [59814056]
06 96,0 [C3DE64A6] [7F21F9AD]
07 99,8 [BBC42881] [1E65A75D]
08 89,0 [C24DC121] [5D605B50]
09 92,7 [0D375D3D] [911974F2]
10 96,0 [170F7E77] [051D3F07]
11 89,2 [D6FA326D] [ADA6083C]
12 85,0 [9A8B43AF] [F647B3DC]
13 94,4 [812593F9] [FF5EBA1C]
14 86,3 [B2B98A8C] [5D5C7F7D]
15 86,7 [737E89A5] [7B5E94AE]
16 81,6 [320C0276] [50F8BABD]



Original Release Date: November 1964
Re-Released on CD: September 8, 1992
Label: Capitol Records
Catalog No.: C2-95084
NITRO
The Right choice
http://www.nitroflare.com/view/48328E6539CF23F/TBB164CA732FC.rar

lossy.mp3
http://www.nitroflare.com/view/DBE737EEDDFD7A7/TBB164CA20GC.rar


Uploadable
The Right choice


lossy.mp3



Basic covers included in both types of archives.