Jim Hall - Concierto (1975) Reissue 2001


Jim Hall - Concierto (1975) Reissue 2001
EAC | FLAC | Image (Cue&Log) ~ 323 Mb (incl 5%) | Mp3 (CBR320) ~ 170 Mb (incl 5%) | Scans included
Genre: Cool, Post-Bop, Guitar Jazz | Label: Epic/Legacy/CTI Records | # 5060252 | Time: 01:05:58

Guitarist Jim Hall is the sort of musician who displays such technical expertise, imaginative conception, and elegance of line and phrase that almost any recording of his is worth hearing. Still, Concierto ranks among the best albums of his superb catalog. For starters, the personnel here is a jazz lover's dream come true. Paul Desmond (saxophone), Chet Baker (trumpet), Roland Hanna (piano), Ron Carter (bass), and Steve Gadd (drums) are on board, creating -- along with Hall -- one of the highest profile lineups ever put to tape. Yet Concierto is not about star power and showboating. As subtle, nuanced, and considered as any of Hall's output, the ensemble playing here demonstrates great group sensitivity and interplay, giving precedence to mood and atmosphere over powerhouse soloing. Conductor and arranger Don Sebesky evinces a chamber ambience from the sextet on "You'd Be So Nice to Come Home To," the smoky "The Answer Is Yes," and the Hall centerpiece "Concierto de Aranjuez".

Review by Anthony Tognazzini, Allmusic.com






Tracklist:

01. You'd Be So Nice To Come Home To (07:07)
02. Two's Blues (03:51)
03. The Answer Is Yes (07:39)
04. Concierto De Aranjuez (19:18)
05. Rock Skippin' (06:12)
06. Unfinished Business (02:38)
07. You'd Be So Nice To Come Home To (Alt. Take) (07:29)
08. The Answer Is Yes (Alt. Take) (05:36)
09. Rock Skippin' (Alt. Take) (06:03)


Exact Audio Copy V1.0 beta 3 from 29. August 2011

Отчёт EAC об извлечении, выполненном 22. октября 2012, 23:55

Jim Hall / Concierto

Дисковод: HL-DT-STDVDRAM GH22NS70 Adapter: 1 ID: 0

Режим чтения : Достоверность
Использование точного потока : Да
Отключение кэша аудио : Да
Использование указателей C2 : Нет

Коррекция смещения при чтении : 667
Способность читать области Lead-in и Lead-out : Нет
Заполнение пропущенных сэмплов тишиной : Да
Удаление блоков с тишиной в начале и конце : Нет
При вычислениях CRC использовались нулевые сэмплы : Да
Интерфейс : Встроенный Win32-интерфейс для Win NT/2000

Выходной формат : Пользовательский кодировщик
Выбранный битрейт : 128 kBit/s
Качество : Высокий
Добавление ID3-тега : Нет
Утилита сжатия : C:Program FilesExact Audio CopyFLACFLAC.EXE
Дополнительные параметры : -V -8 -T "Date=%year%" -T "Genre=%genre%" %source%


TOC извлечённого CD

Трек | Старт | Длительность | Начальный сектор | Конечный сектор
---------------------------------------------------------------------
1 | 0:00.00 | 7:07.05 | 0 | 32029
2 | 7:07.05 | 3:51.40 | 32030 | 49394
3 | 10:58.45 | 7:39.45 | 49395 | 83864
4 | 18:38.15 | 19:18.57 | 83865 | 170771
5 | 37:56.72 | 6:12.65 | 170772 | 198736
6 | 44:09.62 | 2:38.63 | 198737 | 210649
7 | 46:48.50 | 7:29.30 | 210650 | 244354
8 | 54:18.05 | 5:36.37 | 244355 | 269591
9 | 59:54.42 | 6:03.05 | 269592 | 296821


Характеристики диапазона извлечения и сообщения об ошибках

Выбранный диапазон

Имя файла D:Up-DownJim Hall - ConciertoJim Hall - Concierto.wav

Пиковый уровень 100.0 %
Скорость извлечения 1.9 X
Качество диапазона 100.0 %
CRC теста 8E91B869
CRC копии 8E91B869
Копирование... OK

Ошибок не произошло


AccurateRip: сводка

Трек 1 : извлечено точно (доверие 10) [05595A21] (AR v2)
Трек 2 : извлечено точно (доверие 11) [0229BE67] (AR v2)
Трек 3 : извлечено точно (доверие 11) [B7A4D0F9] (AR v2)
Трек 4 : извлечено точно (доверие 11) [0AD55206] (AR v2)
Трек 5 : извлечено точно (доверие 11) [0FB13541] (AR v2)
Трек 6 : извлечено точно (доверие 11) [73F5CD57] (AR v2)
Трек 7 : извлечено точно (доверие 11) [5D63FBB5] (AR v2)
Трек 8 : извлечено точно (доверие 11) [79F42373] (AR v2)
Трек 9 : извлечено точно (доверие 11) [ECA2CD72] (AR v2)

Все треки извлечены точно

Конец отчёта

==== Контрольная сумма отчёта BBFA8DEF503C3E906049AFDCBF218FFC4BAFD1A282FA12C5445C0A3CC549DE29 ====

foobar2000 1.2 / Dynamic Range Meter 1.1.1
log date: 2015-03-04 16:12:12

--------------------------------------------------------------------------------
Analyzed: Jim Hall / Concierto
--------------------------------------------------------------------------------

DR Peak RMS Duration Track
--------------------------------------------------------------------------------
DR15 0.00 dB -19.06 dB 7:07 01-You'd Be So Nice To Come Home To
DR13 -3.39 dB -19.61 dB 3:52 02-Two's Blues
DR14 -2.70 dB -19.81 dB 7:40 03-The Answer Is Yes
DR13 -2.20 dB -20.19 dB 19:19 04-Concierto De Aranjuez
DR14 -2.02 dB -19.16 dB 6:13 05-Rock Skippin'
DR12 -7.31 dB -23.35 dB 2:39 06-Unfinished Business
DR15 -2.51 dB -20.13 dB 7:29 07-You'd Be So Nice To Come Home To (Alt. Take)
DR12 -5.18 dB -20.44 dB 5:36 08-The Answer Is Yes (Alt. Take)
DR13 -5.68 dB -21.80 dB 6:03 09-Rock Skippin' (Alt. Take)
--------------------------------------------------------------------------------

Number of tracks: 9
Official DR value: DR13

Samplerate: 44100 Hz
Channels: 2
Bits per sample: 16
Bitrate: 628 kbps
Codec: FLAC
================================================================================



All thanks to original releaser - strizh64





Password: designol