Вход в свой аккаунт

Или войдите через соц. сети

Depeche Mode: Alive in Berlin (2014)


Depeche Mode: Alive in Berlin (2014)
HDRip 720p | MKV / AVC, 1970 Kbps | 1280x720 | 2h 34mn | 2.60 GB
English: AC3, 448 Kbps (6 ch) | Subtitles: English, Spanish, French, Italian, German
Genre: Documentary | Music

"Depeche Mode Live in Berlin' was filmed on location at the O2 World Berlin on November 25th and 27th, 2013 during the band's extremely successful 'Delta Machine' Tour which saw them play to over 2.4 million people in 32 countries. Depeche Mode was touring in support of their lauded 13th studio album, 'Delta Machine,' which debuted at #1 in 12 countries worldwide in March 2013. The concert not only includes performances of tracks from 'Delta Machine' but also some of their most memorable and biggest hits including ""Personal Jesus"" and ""Enjoy the Silence."" 'Alive in Berlin' includes the full live show, inter-spliced with behind-the-scenes footage, multiple interviews with the band and their fans, and a 2-song acoustic session, which was filmed at Salon Bel Ami, the oldest existing brothel in Berlin.



General
Unique ID : 175455723372024284123581787908885691940 (0x83FF8B0C3F559F2BA1BB82EAAA4BBE24)
Format : Matroska
Format version : Version 4 / Version 2
File size : 2.60 GiB
Duration : 2h 34mn
Overall bit rate : 2 410 Kbps
Encoded date : UTC 2015-03-08 12:16:13
Writing application : mkvmerge v7.7.0 ('Six Voices') 64bit built on Feb 28 2015 23:39:33
Writing library : libebml v1.3.1 + libmatroska v1.4.2

Video
ID : 1
Format : AVC
Format/Info : Advanced Video Codec
Format profile : High@L4.1
Format settings, CABAC : Yes
Format settings, ReFrames : 4 frames
Codec ID : V_MPEG4/ISO/AVC
Duration : 2h 34mn
Bit rate : 1 970 Kbps
Width : 1 280 pixels
Height : 720 pixels
Display aspect ratio : 16:9
Frame rate mode : Constant
Frame rate : 25.000 fps
Color space : YUV
Chroma subsampling : 4:2:0
Bit depth : 8 bits
Scan type : Progressive
Bits/(Pixel*Frame) : 0.086
Stream size : 2.06 GiB (79%)
Writing library : x264 core 142 r2479 dd79a61
Encoding settings : cabac=1 / ref=4 / deblock=1:0:0 / analyse=0x3:0x113 / me=hex / subme=2 / psy=1 / psy_rd=1.00:0.00 / mixed_ref=0 / me_range=16 / chroma_me=1 / trellis=0 / 8x8dct=1 / cqm=0 / deadzone=21,11 / fast_pskip=1 / chroma_qp_offset=0 / threads=3 / lookahead_threads=1 / sliced_threads=0 / nr=0 / decimate=1 / interlaced=0 / bluray_compat=0 / constrained_intra=0 / bframes=5 / b_pyramid=2 / b_adapt=1 / b_bias=0 / direct=1 / weightb=1 / open_gop=0 / weightp=2 / keyint=250 / keyint_min=25 / scenecut=40 / intra_refresh=0 / rc_lookahead=10 / rc=abr / mbtree=1 / bitrate=1970 / ratetol=1.0 / qcomp=0.60 / qpmin=0 / qpmax=69 / qpstep=4 / vbv_maxrate=62500 / vbv_bufsize=78125 / nal_hrd=none / filler=0 / ip_ratio=1.40 / aq=1:1.00
Default : Yes
Forced : No
Color primaries : BT.709
Transfer characteristics : BT.709
Matrix coefficients : BT.709
Color range : Limited
DURATION : 02:34:15.520000000
NUMBER_OF_FRAMES : 231388
NUMBER_OF_BYTES : 2267990117
_STATISTICS_WRITING_APP : mkvmerge v7.7.0 ('Six Voices') 64bit built on Feb 28 2015 23:39:33
_STATISTICS_WRITING_DATE_UT : 2015-03-08 12:16:13
_STATISTICS_TAGS : BPS DURATION NUMBER_OF_FRAMES NUMBER_OF_BYTES

Audio
ID : 2
Format : AC-3
Format/Info : Audio Coding 3
Mode extension : CM (complete main)
Format settings, Endianness : Big
Codec ID : A_AC3
Duration : 2h 34mn
Bit rate mode : Constant
Bit rate : 448 Kbps
Channel(s) : 6 channels
Channel positions : Front: L C R, Side: L R, LFE
Sampling rate : 48.0 KHz
Bit depth : 16 bits
Compression mode : Lossy
Delay relative to video : -5ms
Stream size : 494 MiB (19%)
Title : Surround
Language : English
Default : Yes
Forced : No
DURATION : 02:34:15.520000000
NUMBER_OF_FRAMES : 289235
NUMBER_OF_BYTES : 518309120
_STATISTICS_WRITING_APP : mkvmerge v7.7.0 ('Six Voices') 64bit built on Feb 28 2015 23:39:33
_STATISTICS_WRITING_DATE_UT : 2015-03-08 12:16:13
_STATISTICS_TAGS : BPS DURATION NUMBER_OF_FRAMES NUMBER_OF_BYTES

Text #1
ID : 3
Format : ASS
Codec ID : S_TEXT/ASS
Codec ID/Info : Advanced Sub Station Alpha
Compression mode : Lossless
Language : Spanish
Default : No
Forced : No
DURATION : 02:25:01.080000000
NUMBER_OF_FRAMES : 487
NUMBER_OF_BYTES : 43452
_STATISTICS_WRITING_APP : mkvmerge v7.7.0 ('Six Voices') 64bit built on Feb 28 2015 23:39:33
_STATISTICS_WRITING_DATE_UT : 2015-03-08 12:16:13
_STATISTICS_TAGS : BPS DURATION NUMBER_OF_FRAMES NUMBER_OF_BYTES

Text #2
ID : 4
Format : ASS
Codec ID : S_TEXT/ASS
Codec ID/Info : Advanced Sub Station Alpha
Compression mode : Lossless
Language : French
Default : No
Forced : No
DURATION : 02:25:01.080000000
NUMBER_OF_FRAMES : 486
NUMBER_OF_BYTES : 43411
_STATISTICS_WRITING_APP : mkvmerge v7.7.0 ('Six Voices') 64bit built on Feb 28 2015 23:39:33
_STATISTICS_WRITING_DATE_UT : 2015-03-08 12:16:13
_STATISTICS_TAGS : BPS DURATION NUMBER_OF_FRAMES NUMBER_OF_BYTES

Text #3
ID : 5
Format : ASS
Codec ID : S_TEXT/ASS
Codec ID/Info : Advanced Sub Station Alpha
Compression mode : Lossless
Language : Italian
Default : No
Forced : No
DURATION : 02:25:05.200000000
NUMBER_OF_FRAMES : 487
NUMBER_OF_BYTES : 41788
_STATISTICS_WRITING_APP : mkvmerge v7.7.0 ('Six Voices') 64bit built on Feb 28 2015 23:39:33
_STATISTICS_WRITING_DATE_UT : 2015-03-08 12:16:13
_STATISTICS_TAGS : BPS DURATION NUMBER_OF_FRAMES NUMBER_OF_BYTES

Text #4
ID : 6
Format : ASS
Codec ID : S_TEXT/ASS
Codec ID/Info : Advanced Sub Station Alpha
Compression mode : Lossless
Language : German
Default : No
Forced : No
DURATION : 02:25:01.080000000
NUMBER_OF_FRAMES : 486
NUMBER_OF_BYTES : 44229
_STATISTICS_WRITING_APP : mkvmerge v7.7.0 ('Six Voices') 64bit built on Feb 28 2015 23:39:33
_STATISTICS_WRITING_DATE_UT : 2015-03-08 12:16:13
_STATISTICS_TAGS : BPS DURATION NUMBER_OF_FRAMES NUMBER_OF_BYTES


screenshots:









No more mirrors!

“ ”