Вход в свой аккаунт

Или войдите через соц. сети

Iris Dement - The Way I Should (1996)


Iris Dement - The Way I Should (1996)
EAC | FLAC | Image (Cue&Log) ~ 344 Mb (incl 5%) | Mp3 (CBR320) ~ 140 Mb (incl 5%) | Scans included
Genre: Country-Folk, Singer-songwriter | Label: Warner Bros. | # 9 46188 2 | Time: 00:50:35

“ The introspective scope of DeMent's first two records expands to tackle global topics like religion, sexual abuse and war on the tough-talking The Way I Should Be, a more rock-influenced offering including cameo appearances from Mark Knopfler, Lonnie Mack and Delbert McClinton (who duets on "Trouble").

Review by Jason Ankeny, Allmusic.com
”







Tracklist:

01. When My Mornin' Comes Around (03:51)
02. There's A Wall In Washington (05:19)
03. Wasteland of The Free (05:15)
04. I'll Take My Sorrow Straight (03:27)
05. This Kind of Happy (03:44)
06. The Way I Should (04:26)
07. Letter To Mom (03:19)
08. Keep Me God (03:49)
09. Quality Time (04:05)
10. Walkin' Home (05:41)
11. Trouble (Duet With Delbert McClinton) (07:33)


Exact Audio Copy V1.0 beta 5 from 2. April 2015

EAC extraction logfile from 11. April 2015, 14:44

Iris Dement / The Way I Should

Used drive : ASUS SDRW-08D1S-U Adapter: 1 ID: 1

Read mode : Secure
Utilize accurate stream : Yes
Defeat audio cache : Yes
Make use of C2 pointers : No

Read offset correction : 667
Overread into Lead-In and Lead-Out : No
Fill up missing offset samples with silence : Yes
Delete leading and trailing silent blocks : No
Null samples used in CRC calculations : Yes
Used interface : Native Win32 interface for Win NT & 2000

Used output format : User Defined Encoder
Selected bitrate : 128 kBit/s
Quality : High
Add ID3 tag : No
Command line compressor : C:Program Files (x86)Exact Audio CopyFlacflac.exe
Additional command line options : -V -8 -T "Date=%year%" -T "Genre=%genre%" %source%


TOC of the extracted CD

Track | Start | Length | Start sector | End sector
---------------------------------------------------------
1 | 0:00.32 | 3:51.70 | 32 | 17426
2 | 3:52.27 | 5:19.20 | 17427 | 41371
3 | 9:11.47 | 5:15.28 | 41372 | 65024
4 | 14:27.00 | 3:27.05 | 65025 | 80554
5 | 17:54.05 | 3:44.35 | 80555 | 97389
6 | 21:38.40 | 4:26.55 | 97390 | 117394
7 | 26:05.20 | 3:19.67 | 117395 | 132386
8 | 29:25.12 | 3:49.10 | 132387 | 149571
9 | 33:14.22 | 4:05.65 | 149572 | 168011
10 | 37:20.12 | 5:41.38 | 168012 | 193624
11 | 43:01.50 | 7:33.62 | 193625 | 227661


Range status and errors

Selected range

Filename C:UsersОлегDesktopIris DementIris Dement - The Way I Should.wav

Peak level 97.2 %
Extraction speed 2.0 X
Range quality 99.9 %
Test CRC CC331DBB
Copy CRC CC331DBB
Copy OK

No errors occurred


AccurateRip summary

Track 1 accurately ripped (confidence 34) [1EB10781] (AR v2)
Track 2 accurately ripped (confidence 34) [83120F7D] (AR v2)
Track 3 accurately ripped (confidence 32) [8CDE9633] (AR v2)
Track 4 accurately ripped (confidence 34) [5BE6196D] (AR v2)
Track 5 accurately ripped (confidence 34) [58BFD3CC] (AR v2)
Track 6 accurately ripped (confidence 33) [1CB78D33] (AR v2)
Track 7 accurately ripped (confidence 34) [C4AB84D0] (AR v2)
Track 8 accurately ripped (confidence 34) [02A31F65] (AR v2)
Track 9 accurately ripped (confidence 33) [74E5964F] (AR v2)
Track 10 accurately ripped (confidence 33) [6AF49AD4] (AR v2)
Track 11 accurately ripped (confidence 33) [01433F70] (AR v2)

All tracks accurately ripped

End of status report

---- CUETools DB Plugin V2.1.6

[CTDB TOCID: ngWkOUrqat9.a4dcF8jmWNoRaHY-] found
Submit result: ngWkOUrqat9.a4dcF8jmWNoRaHY- has been confirmed
Track | CTDB Status
1 | (5/5) Accurately ripped
2 | (5/5) Accurately ripped
3 | (5/5) Accurately ripped
4 | (5/5) Accurately ripped
5 | (5/5) Accurately ripped
6 | (5/5) Accurately ripped
7 | (5/5) Accurately ripped
8 | (5/5) Accurately ripped
9 | (5/5) Accurately ripped
10 | (5/5) Accurately ripped
11 | (5/5) Accurately ripped


==== Log checksum 8F102848F68D815F1A669459B811B3EC9B41179B8471DBC824F58D88F6292CE6 ====

foobar2000 1.2 / Dynamic Range Meter 1.1.1
log date: 2015-04-15 23:02:41

--------------------------------------------------------------------------------
Analyzed: Iris Dement / The Way I Should
--------------------------------------------------------------------------------

DR Peak RMS Duration Track
--------------------------------------------------------------------------------
DR10 -0.50 dB -12.75 dB 3:52 01-When My Mornin' Comes Around
DR8 -0.30 dB -11.31 dB 5:19 02-There's A Wall In Washington
DR8 -0.30 dB -10.31 dB 5:15 03-Wasteland of The Free
DR9 -0.30 dB -11.38 dB 3:27 04-I'll Take My Sorrow Straight
DR11 -0.30 dB -13.99 dB 3:44 05-This Kind of Happy
DR9 -0.30 dB -11.32 dB 4:27 06-The Way I Should
DR9 -0.30 dB -10.41 dB 3:20 07-Letter To Mom
DR9 -0.30 dB -11.50 dB 3:49 08-Keep Me God
DR9 -0.30 dB -11.15 dB 4:06 09-Quality Time
DR11 -0.30 dB -14.26 dB 5:42 10-Walkin' Home
DR9 -0.24 dB -10.12 dB 7:34 11-Trouble (Duet With Delbert McClinton)
--------------------------------------------------------------------------------

Number of tracks: 11
Official DR value: DR9

Samplerate: 44100 Hz
Channels: 2
Bits per sample: 16
Bitrate: 857 kbps
Codec: FLAC
================================================================================



All thanks to original releaser - Alex Fal





Password: designol